2.19GB / Тигр в полиции / Непобедимый тигр / Tiger On Beat / Lo foo chut gang (Чиа-Лянг Лиу) [1988, боевик, триллер, драма, комедия, кримина

Категория: фильмы » Комедии
рейтинг из 5
  • Добавил: zlidny
  • Дата: 06/09/14, 20:47:20
  • Просмотры: 216
  • Отзывы: 0
?????
Название игры:
Год выхода игры:
Жанр игры: Комедии

Перевод: Авторский [Визгунов Сергей], субтитры: отсутствуют
Формат: HDRip-AVC, MKV, H.264, AC3
Режиссер: Чиа-Лянг Лиу
Жанр: боевик, триллер, драма, комедия, криминал
Продолжительность: 01:32:48
Год выпуска: 1988
В ролях: Чоу Юнь-Фат, Нина Ли Чи, Конан Ли, Норман Чу, Джа Хуи Лью, Ширли ЭнДжи, Филлип Ко, Томми Там, Дэвид Чианг, Джеймс Вонг, Лидия Сум, Чиа Юнг Лью, Фуй-Он Син, Ланг Ти

Описание: Незадачливому сержанту полиции Френсису коллеги в шутку дают прозвище Тигр. Вместе со своим новым напарником Майклом они должны расследовать, казалось бы, рядовое убийство гангстера. Но дело неожиданно принимает крутой оборот.



Видео: 1280х688 (1,85:1), 23,976 fps, AVC (х264), High@L4.1 , ~ 2735 kbps avg, 0.130 bit/pixel
Аудио #1: Русский 48.0 kHz, AC3 , (Front: L R) , 2 ch ~192Kbps avg Авторский [Визгунов Сергей]
Аудио #2: Китайский 48.0 kHz, AC3, (Front: L C R, Side: L R, LFE) , 6 ch ~448Kbps avg Оригинал


Рип: jeenart

 

MediaInfo
Общее
Уникальный идентификатор : 185256418815087659656563889029800296140 (0x8B5F16A3E95C73A2A7CF3283971C7ECC)
Полное имя : C:\Тигр в полици.1988.HDRip-AVC.H.264.2,18 Gb.RG.Films.mkv
Формат : Matroska
Версия формата : Version 2
Размер файла : 2,19 Гбайт
Продолжительность : 1 ч. 32 м.
Общий поток : 3375 Кбит/сек
Дата кодирования : UTC 2014-09-01 13:31:58
Программа кодирования : mkvmerge v5.8.0 ('No Sleep / Pillow') built on Sep 2 2012 15:37:04
Библиотека кодирования : libebml v1.2.3 + libmatroska v1.3.0

Видео
Идентификатор : 1
Формат : AVC
Формат/Информация : Advanced Video Codec
Профиль формата : High@L4.1
Параметр CABAC формата : Да
Параметр ReFrames формата : 8 кадров
Режим смешивания : Header stripping
Идентификатор кодека : V_MPEG4/ISO/AVC
Продолжительность : 1 ч. 32 м.
Битрейт : 2735 Кбит/сек
Ширина : 1280 пикселей
Высота : 688 пикселей
Соотношение сторон : 1,85:1
Режим частоты кадров : Постоянный
Частота кадров : 23,976 кадра/сек
Цветовое пространство : YUV
Субдискретизация насыщенности : 4:2:0
Битовая глубина : 8 бит
Тип развёртки : Прогрессивная
Бит/(Пиксели*Кадры) : 0.130
Размер потока : 1,73 Гбайт (79%)
Библиотека кодирования : x264 core 125 r2208 d9d2288
Настройки программы : cabac=1 / ref=8 / deblock=1:-1:-1 / analyse=0x3:0x133 / me=umh / subme=11 / psy=1 / psy_rd=1.00:0.10 / mixed_ref=1 / me_range=24 / chroma_me=1 / trellis=2 / 8x8dct=1 / cqm=0 / deadzone=21,11 / fast_pskip=0 / chroma_qp_offset=-3 / threads=12 / lookahead_threads=2 / sliced_threads=0 / nr=0 / decimate=1 / interlaced=0 / bluray_compat=0 / constrained_intra=0 / bframes=3 / b_pyramid=2 / b_adapt=2 / b_bias=0 / direct=3 / weightb=1 / open_gop=0 / weightp=2 / keyint=250 / keyint_min=23 / scenecut=40 / intra_refresh=0 / rc_lookahead=50 / rc=2pass / mbtree=1 / bitrate=2735 / ratetol=1.0 / qcomp=0.60 / qpmin=0 / qpmax=69 / qpstep=4 / cplxblur=20.0 / qblur=0.5 / ip_ratio=1.40 / aq=1:1.00
Default : Да
Forced : Нет

Аудио #1
Идентификатор : 2
Формат : AC-3
Формат/Информация : Audio Coding 3
Расширение режима : CM (complete main)
Параметр Endianness формата : Big
Режим смешивания : Header stripping
Идентификатор кодека : A_AC3
Продолжительность : 1 ч. 32 м.
Вид битрейта : Постоянный
Битрейт : 192 Кбит/сек
Каналы : 2 канала
Расположение каналов : Front: L R
Частота : 48,0 КГц
Битовая глубина : 16 бит
Метод сжатия : С потерями
Размер потока : 127 Мбайт (6%)
Default : Да
Forced : Нет

Аудио #2
Идентификатор : 3
Формат : AC-3
Формат/Информация : Audio Coding 3
Расширение режима : CM (complete main)
Параметр Endianness формата : Big
Режим смешивания : Header stripping
Идентификатор кодека : A_AC3
Продолжительность : 1 ч. 32 м.
Вид битрейта : Постоянный
Битрейт : 448 Кбит/сек
Каналы : 6 каналов
Расположение каналов : Front: L C R, Side: L R, LFE
Частота : 48,0 КГц
Битовая глубина : 16 бит
Метод сжатия : С потерями
Размер потока : 297 Мбайт (13%)
Default : Нет
Forced : Нет

Статистика торрента
Раздают: 377 Качают: 91 Размер: 2.19GB Скачали: 11
Имя файла: 37463_Tigr_v_politsi..torrent
Похожие торренты
Отзывы пользователей
Добавить отзыв