2.15GB / Как развести миллионера [01-04 из 04] (2014) HDTVRip от Files-x

Категория: фильмы » Комедии
рейтинг из 5
  • Добавил: zlidny
  • Дата: 19/07/14, 11:41:17
  • Просмотры: 200
  • Отзывы: 0
?????
Название игры:
Год выхода игры:
Жанр игры: Комедии

Оригинальное название: Как развести миллионера
Год выпуска: 2014
Жанр: Комедия
Режиссер: Василий Мищенко
В ролях: Михаил Шкловский, Вера Баханкова, Александр Сибирцев, Иван Лапин, Нелли Неведина, Василий Мищенко, Денис Ясик, Ирина Лосева, Ульяна Лаптева, София Елфимова, Ирина Цывина
О фильме: Богатый и избалованный Кирилл Торопов заключает с друзьями пари: он очарует и приведет в ЗАГС пять невест, но все они его бросят, как только узнают, что он нищий. Так и происходит, но в пятую невесту, Нину, Торопов неожиданно для себя влюбляется. Однако Нина узнает о пари..

Выпущено: Россия, АРК-Фильм
Продолжительность: 4 х 00:43:00
Перевод: не требуется

Файл
Кодек: XviD
Качество: HDTVRip
Видео: 720x400 (1.80:1), 25 fps, XviD build 50 ~1548 kbps avg, 0.22 bit/pixel
Аудио: 48 kHz, AC3 Dolby Digital, 2/0 (L,R) ch, ~192.00 kbps avg

MI
General
Complete name : Z:раздачиKak.razvesti.millionera.2014.HDTVRip.RG.Russkie.serialy.&.Files-xKak.razvesti.millionera.01.seriya.2014.HDTVRip.RG.Russkie.serialy.&.Files-x.avi
Format : AVI
Format/Info : Audio Video Interleave
File size : 550 MiB
Duration : 43mn 48s
Overall bit rate : 1 755 Kbps
Writing application : VirtualDubMod 1.5.10.3 | www.virtualdub-fr.org || (build 2550/release)
Writing library : VirtualDubMod build 2550/release

Video
ID : 0
Format : MPEG-4 Visual
Format profile : Advanced Simple@L5
Format settings, BVOP : 1
Format settings, QPel : No
Format settings, GMC : No warppoints
Format settings, Matrix : Default (H.263)
Codec ID : XVID
Codec ID/Hint : XviD
Duration : 43mn 48s
Bit rate : 1 553 Kbps
Width : 720 pixels
Height : 400 pixels
Display aspect ratio : 16:9
Frame rate : 25.000 fps
Color space : YUV
Chroma subsampling : 4:2:0
Bit depth : 8 bits
Scan type : Progressive
Compression mode : Lossy
Bits/(Pixel*Frame) : 0.216
Stream size : 487 MiB (89%)
Writing library : XviD 1.2.1 (UTC 2008-12-04)

Audio
ID : 1
Format : AC-3
Format/Info : Audio Coding 3
Mode extension : CM (complete main)
Format settings, Endianness : Big
Codec ID : 2000
Duration : 43mn 48s
Bit rate mode : Constant
Bit rate : 192 Kbps
Channel(s) : 2 channels
Channel positions : Front: L R
Sampling rate : 48.0 KHz
Bit depth : 16 bits
Compression mode : Lossy
Stream size : 60.2 MiB (11%)
Alignment : Split accross interleaves
Interleave, duration : 40 ms (1.00 video frame)
Interleave, preload duration : 500 ms

 

Скриншоты


 


Сэмпл
Релиз от:


Статистика торрента
Раздают: 373 Качают: 47 Размер: 2.15GB Скачали: 13
Имя файла: 36068_-rutor.org-Kak..torrent
Похожие торренты
Отзывы пользователей
Добавить отзыв