2.08GB / Идеальный мужчина (1-4 серии из 4) (Сахат Дурсунов) [2014, комедия, мелодрама, SATRip]

Категория: фильмы » Комедии
рейтинг из 5
  • Добавил: zlidny
  • Дата: 22/08/14, 18:49:57
  • Просмотры: 250
  • Отзывы: 0
?????
Название игры:
Год выхода игры:
Жанр игры: Мелодрамы, Комедии

Формат: SATRip, AVI, DivX, MP3
Режиссер: Сахат Дурсунов
Жанр: комедия, мелодрама
Продолжительность: 4 х ~ 00:45:00
Год выпуска: 2014
В ролях: Максим Радугин, Евгения Серебренникова, Алексей Морозов, Алла Цуканова, Виктория Верберг, Мария Добржинская, Алла Подчуфарова, Анастасия Лапина, Марина Торхова, Елена Лагута
Описание:
Брачное агентство Валерии Гордецкой на грани банкротства. Она вложила все деньги, ожидая, что выгодное и благородное дело - помогать людям обрести друг друга - принесет солидные дивиденды, но прогадала. Вся проблема – в дефиците мужчин. Валерия находит изобретательный выход из ситуации. Актеру Сергею Никольскому 37 лет, он не богат, не успешен и без особых талантов. Все, что есть у него, - приятная внешность и милая улыбка.



Видео: 720x400 (16:9), 25 fps, DivX 5 MPEG-4 ~1537 kbps avg, 0.213 bit/pixel
Аудио: 48 kHz, MPEG Layer 3, 2 ch, ~128.00 kbps avg
Тех. данные фалов идентичны.
 

MI
Общее
Полное имя : C:\Users\Admin\Downloads\Idealnyj.muzchina\Idealnyj.muzchina.01.avi
Формат : AVI
Формат/Информация : Audio Video Interleave
Размер файла : 522 Мбайт
Продолжительность : 41 м.
Общий поток : 1743 Кбит/сек
Программа кодирования : transcode-1.1.5

Видео
Идентификатор : 0
Формат : MPEG-4 Visual
Параметр BVOP формата : Да
Параметр QPel формата : Нет
Параметр GMC формата : Без точки перехода
Параметр матрицы формата : Default (H.263)
Идентификатор кодека : DX50
Идентификатор кодека/Подсказка : DivX 5
Продолжительность : 41 м.
Битрейт : 1537 Кбит/сек
Ширина : 720 пикселей
Высота : 400 пикселей
Соотношение сторон : 16:9
Частота кадров : 25,000 кадров/сек
Цветовое пространство : YUV
Субдискретизация насыщенности : 4:2:0
Битовая глубина : 8 бит
Тип развёртки : Прогрессивная
Метод сжатия : С потерями
Бит/(Пиксели*Кадры) : 0.213
Размер потока : 460 Мбайт (88%)
Библиотека кодирования : Intel(R) MPEG-4 encoder based on Intel(R) IPP 6.1 build 137.20[6.1.137.763]

Аудио
Идентификатор : 1
Формат : MPEG Audio
Версия формата : Version 1
Профиль формата : Layer 3
Режим : Joint stereo
Расширение режима : MS Stereo
Идентификатор кодека : 55
Идентификатор кодека/Подсказка : MP3
Продолжительность : 41 м.
Вид битрейта : Постоянный
Битрейт : 128 Кбит/сек
Каналы : 2 канала
Частота : 48,0 КГц
Метод сжатия : С потерями
Размер потока : 38,3 Мбайт (7%)
Выравнивание : Соединение по промежуткам
Библиотека кодирования : LAME3.98.2

скриншоты





Статистика торрента
Раздают: 135 Качают: 25 Размер: 2.08GB Скачали: 17
Имя файла: 37135_idealnyj-tfile..torrent
Похожие торренты
Отзывы пользователей
Добавить отзыв