297MB / Воруя время / Stealing Time (Александр Каллерос / Alexander Calleros) [2011, короткометражка, фантастика, триллер, комедия, WEBDLRip

Категория: фильмы » Комедии
рейтинг из 5
  • Добавил: zlidny
  • Дата: 08/10/14, 22:10:54
  • Просмотры: 307
  • Отзывы: 0
?????
Название игры:
Год выхода игры:
Жанр игры: Триллеры, Фантастика, Комедии

Перевод: Любительский (одноголосый), субтитры: отсутствуют
Формат: WEBDLRip-AVC, MKV, H.264, AC3
Страна: США
Режиссер: Александр Каллерос / Alexander Calleros
Жанр: короткометражка, фантастика, триллер, комедия
Продолжительность: 00:17:29
Год выпуска: 2011
В ролях: Микиэ Битти, Дэн Бекнер, Джоэль Келли Дотен, Софи Грин, Мариса Перссон

Описание: Молодой изобретатель создает машину времени и, сам того не желая, запускает цепь роковых событий.



Видео: 1920x1080 (16:9), 23.976 fps, AVC (x264), High@L4.0, ~2101 kbps avg
Аудио: 48 kHz, AC3 Dolby Digital, 2 ch, 224 kbps

Релиз-Группа:

Перевод: Михаил "kyberpunk" Яроцкий
 

MediaInfo
ОбщееОбщее
Уникальный идентификатор : 238960703493401572498364869077521211922 (0xB3C6284DEBBE553B86C68840F2352212)
Формат : Matroska
Версия формата : Version 4 / Version 2
Размер файла : 297 Мбайт
Продолжительность : 17 м.
Общий поток : 2372 Кбит/сек
Название фильма : Релиз Переулка Переводмана
Дата кодирования : UTC 2014-09-28 15:00:38
Программа кодирования : mkvmerge v6.0.0 ('Coming Up For Air') built on Jan 20 2013 09:52:00
Библиотека кодирования : libebml v1.3.0 + libmatroska v1.4.0

Видео
Идентификатор : 1
Формат : AVC
Формат/Информация : Advanced Video Codec
Профиль формата : High@L4.0
Параметр CABAC формата : Да
Параметр ReFrames формата : 3 кадра
Идентификатор кодека : V_MPEG4/ISO/AVC
Продолжительность : 17 м.
Битрейт : 2101 Кбит/сек
Ширина : 1920 пикселей
Высота : 1080 пикселей
Соотношение сторон : 16:9
Режим частоты кадров : Постоянный
Частота кадров : 23,976 кадра/сек
Цветовое пространство : YUV
Субдискретизация насыщенности : 4:2:0
Битовая глубина : 8 бит
Тип развёртки : Прогрессивная
Бит/(Пиксели*Кадры) : 0.042
Размер потока : 263 Мбайт (89%)
Заголовок : x264
Язык : Russian
Default : Да
Forced : Нет

Аудио
Идентификатор : 2
Формат : AC-3
Формат/Информация : Audio Coding 3
Расширение режима : CM (complete main)
Параметр Endianness формата : Big
Идентификатор кодека : A_AC3
Продолжительность : 17 м.
Вид битрейта : Постоянный
Битрейт : 224 Кбит/сек
Каналы : 2 канала
Расположение каналов : Front: L R
Частота : 48,0 КГц
Битовая глубина : 16 бит
Метод сжатия : С потерями
Размер потока : 28,0 Мбайт (9%)
Заголовок : AVO Kyberpunk
Язык : Russian
Default : Да
Forced : Нет

скриншоты






Статистика торрента
Раздают: 46 Качают: 131 Размер: 297MB Скачали: 15
Имя файла: 38299_119-Stealing.Ti.torrent
Похожие торренты
Отзывы пользователей
Добавить отзыв