1.46GB / Большая афера / The Grand Seduction (2013) BDRip от New-Team | P | лицензия

Категория: фильмы » Комедии
рейтинг из 5
  • Добавил: zlidny
  • Дата: 25/09/14, 16:00:49
  • Просмотры: 141
  • Отзывы: 0
?????
Название игры:
Год выхода игры:
Жанр игры: Комедии

Страна: Канада / Max Films Productions Inc., Morag Loves Company Limited

Жанр: комедия
Год выпуска: 2013
Продолжительность: 01:53:08

Перевод: Профессиональный (многоголосый закадровый)
Cубтитры: нет
Оригинальная аудиодорожка: нет

Режиссер: Дон МакКеллар / Don McKellar

В ролях: Брендан Глисон, Тейлор Китч, Лиэн Балабан, Гордон Пинсент, Анна Хопкинс, Ронда Роджерс, Джофф Адамс, Джон Бартлетт, Карли Бун, Марк Критч...

Описание: Наши дни, маленькая деревушка под названием Гадюкино, по уровню развития сильно отставшая от XXI столетия. В деревне существует предприятие, на котором и держится вся деревня, однако если не найдется доктор, согласившейся на нем работать штатным врачом - фабрика будет закрыта. И к большому удивлению местных жителей, смирившихся с худшим, доктор нашелся. Им оказался молодой человек по имени Пол Льюис. Честно говоря, сам Пол думал пробыть тут всего пару недель, однако никак не остаться на постоянное место работы. Местные жители, руководить которыми назначен Мюррей Френч, должны будут постараться, дабы убедить Пола остаться в их деревне. Каждый житель Гадюкино в действительности на многое пойдет, дабы только Пол захотел остаться в их маленькой деревне. И за их «стараниями» будет интересно понаблюдать. Основным достоинством кинофильма «Большая афера» является комедийность и ироничность. И по меркам маленькой деревни их затею действительно можно назвать крупной аферой. Ведь в XXI веке молодежь делает все что можно, дабы только уехать из маленькой деревушки, а не попасть туда на работу. Однако иногда бывают и исключения из правил.



Качество: BDRip / DVD9 R5 - лицензионный диск от Premium Film + The Grand Seduction.2013.x264.BDremux.1080p-MediaClub.mkv
Формат: AVI

Видео: 720x384, XViD, 1391 kbps / 23,976 fps / 1,85:1 / bit/pix=0.210
Аудио: Russian: 48 kHz, AC3, 3/2 (L,C,R,l,r) + LFE ch, 448.00 kbps constant

Раздача от:

MediaInfo

Общее
Полное имя : Bolshaya.afera.2013.P.BDRip_[New-Team]_by_avproh.avi
Формат : AVI
Формат/Информация : Audio Video Interleave
Размер файла : 1,46 Гбайт
Продолжительность : 1 ч. 53 м.
Общий поток : 1848 Кбит/сек
Программа кодирования : VirtualDubModRus 1.5.10.2 (build 2542/release)
Библиотека кодирования : VirtualDubMod build 2542/release

Видео
Идентификатор : 0
Формат : MPEG-4 Visual
Профиль формата : Advanced Simple@L5
Параметр BVOP формата : 1
Параметр QPel формата : Нет
Параметр GMC формата : Без точки перехода
Параметр матрицы формата : Выборочная
Идентификатор кодека : XVID
Идентификатор кодека/Подсказка : XviD
Продолжительность : 1 ч. 53 м.
Битрейт : 1391 Кбит/сек
Ширина : 720 пикселей
Высота : 384 пикселя
Соотношение сторон : 1,85:1
Частота кадров : 23,976 кадра/сек
Цветовое пространство : YUV
Субдискретизация насыщенности : 4:2:0
Битовая глубина : 8 бит
Тип развёртки : Прогрессивная
Метод сжатия : С потерями
Бит/(Пиксели*Кадры) : 0.210
Размер потока : 1,10 Гбайт (75%)
Библиотека кодирования : XviD 1.2.1 (UTC 2008-12-04)

Аудио
Идентификатор : 1
Формат : AC-3
Формат/Информация : Audio Coding 3
Расширение режима : CM (complete main)
Параметр Endianness формата : Big
Идентификатор кодека : 2000
Продолжительность : 1 ч. 53 м.
Вид битрейта : Постоянный
Битрейт : 448 Кбит/сек
Каналы : 6 каналов
Расположение каналов : Front: L C R, Side: L R, LFE
Частота : 48,0 КГц
Битовая глубина : 16 бит
Метод сжатия : С потерями
Размер потока : 363 Мбайт (24%)
Выравнивание : Разделение по промежуткам
Продолжительность промежутка : 42 мс. (1,00 видеокадр)
Время предзагрузки промежутка : 500 мс.

 

Скриншоты:



Статистика торрента
Раздают: 161 Качают: 154 Размер: 1.46GB Скачали: 15
Имя файла: 37938_-rutor.org-Bols.torrent
Похожие торренты
Отзывы пользователей
Добавить отзыв