1.45GB / WTF! Какого черта? / N'importe qui (2014) WEB-DLRip-AVC от NovaLan

Категория: фильмы » Комедии
рейтинг из 5
  • Добавил: zlidny
  • Дата: 18/08/14, 15:42:27
  • Просмотры: 245
  • Отзывы: 0
?????
Название игры:
Год выхода игры:
Жанр игры: Комедии

Название: WTF! Какого черта?
Оригинальное название: N'importe qui
Год выхода: 2014
Жанр: Комедия
Режиссер: Рафаэль Фридман
В ролях: Реми Гайяр, Патрик Рейналь, Франк Брунэо, Элбан Иванофф, Николь Феррони, Сильвен Катан, Бриджитт Моати

О фильме:
Реми Гайяр — реальный персонаж Всемирной сети, троллер, провокатор, самый популярный комик инета Европы. Полтора миллиарда просмотров и миллионы фанатов. Пришел день, и он решил остепениться: женился, устроился на работу на автостоянке, пообещал беременной жене, что тоже «уходит в декрет» и бросает свои шалости




Страна: Франция
Студия: Why Not Productions
Продолжительность: 01:17:32
Перевод: Дублированный (iTunes)

Файл
Кодек: MPEG-4 AVC
Качество: WEB-DLRip-AVC
Видео: 2288 Кбит/с, 1024x576
Звук: Русский (AC3, 6 ch, 384 Кбит/с)
 

Релиз
Рип от StarbirS
Релиз группы NovaLan

Aудио: Русский: 48 kHz, AC3, 3/2 (L,C,R,l,r) + LFE ch, ~384.00 kbps avg - Дублированный (iTunes)

x264 [info]: frame I:949 Avg QP:17.29 size: 81748
x264 [info]: frame P:32158 Avg QP:20.64 size: 21043
x264 [info]: frame B:83208 Avg QP:22.95 size: 6913

 

Инфо-файл
Формат : Matroska
Версия формата : Version 4 / Version 2
Размер файла : 1,45 Гбайт
Продолжительность : 1 ч. 17 м.
Общий поток : 2672 Кбит/сек
Название фильма : WTF!Kakogo.Cherta.2014.D.WEB-DLRip.(AVC).NovaLan
Дата кодирования : UTC 2014-08-18 10:17:38
Программа кодирования : mkvmerge v7.1.0 ('Good Love') 64bit built on Jul 27 2014 13:06:55
Библиотека кодирования : libebml v1.3.0 + libmatroska v1.4.1
DURATION : 01:17:32.608000000
NUMBER_OF_FRAMES : 145394
NUMBER_OF_BYTES : 223325184
_STATISTICS_WRITING_APP : mkvmerge v7.1.0 ('Good Love') 64bit built on Jul 27 2014 13:06:55
_STATISTICS_WRITING_DATE_UTC : 2014-08-18 10:17:38
_STATISTICS_TAGS : BPS DURATION NUMBER_OF_FRAMES NUMBER_OF_BYTES

Видео
Идентификатор : 1
Формат : AVC
Формат/Информация : Advanced Video Codec
Профиль формата : High@L4.1
Параметр CABAC формата : Да
Параметр ReFrames формата : 11 кадров
Идентификатор кодека : V_MPEG4/ISO/AVC
Продолжительность : 1 ч. 17 м.
Битрейт : 2288 Кбит/сек
Ширина : 1024 пикселя
Высота : 576 пикселей
Соотношение сторон : 16:9
Режим частоты кадров : Постоянный
Частота кадров : 25,000 кадров/сек
Цветовое пространство : YUV
Субдискретизация насыщенности : 4:2:0
Битовая глубина : 8 бит
Тип развёртки : Прогрессивная
Бит/(Пиксели*Кадры) : 0.155
Размер потока : 1,21 Гбайт (84%)
Заголовок : WTF!Kakogo.Cherta.2014.D.WEB-DLRip.(AVC).by.StarbirS
Библиотека кодирования : x264 core 133 r2334 a3ac64b
Настройки программы : cabac=1 / ref=11 / deblock=1:-2:-2 / analyse=0x3:0x133 / me=umh / subme=11 / psy=1 / psy_rd=1.00:0.00 / mixed_ref=1 / me_range=48 / chroma_me=1 / trellis=2 / 8x8dct=1 / cqm=0 / deadzone=21,11 / fast_pskip=0 / chroma_qp_offset=1 / threads=12 / lookahead_threads=3 / sliced_threads=0 / nr=0 / decimate=1 / interlaced=0 / bluray_compat=0 / constrained_intra=0 / bframes=10 / b_pyramid=2 / b_adapt=2 / b_bias=0 / direct=3 / weightb=1 / open_gop=1 / weightp=2 / keyint=250 / keyint_min=23 / scenecut=40 / intra_refresh=0 / rc=2pass / mbtree=0 / bitrate=2288 / ratetol=1.0 / qcomp=0.60 / qpmin=0 / qpmax=69 / qpstep=4 / cplxblur=20.0 / qblur=0.5 / ip_ratio=1.40 / pb_ratio=1.30 / aq=1:0.50
Язык : English
Default : Да
Forced : Нет
Основные цвета : BT.709

Аудио
Идентификатор : 2
Формат : AC-3
Формат/Информация : Audio Coding 3
Расширение режима : CM (complete main)
Параметр Endianness формата : Big
Идентификатор кодека : A_AC3
Продолжительность : 1 ч. 17 м.
Вид битрейта : Постоянный
Битрейт : 384 Кбит/сек
Каналы : 6 каналов
Расположение каналов : Front: L C R, Side: L R, LFE
Частота : 48,0 КГц
Битовая глубина : 16 бит
Метод сжатия : С потерями
Размер потока : 213 Мбайт (14%)
Заголовок : Дублированный (iTunes)
Язык : Russian
Default : Да
Forced : Нет

Меню
00:00:00.000 : en:Chapter 1
00:06:23.000 : en:Chapter 2
00:11:24.000 : en:Chapter 3
00:16:28.000 : en:Chapter 4
00:21:37.000 : en:Chapter 5
00:26:40.000 : en:Chapter 6
00:31:45.000 : en:Chapter 7
00:36:46.000 : en:Chapter 8
00:41:51.000 : en:Chapter 9
00:46:54.000 : en:Chapter 10
00:51:57.000 : en:Chapter 11
00:57:03.000 : en:Chapter 12
01:02:38.000 : en:Chapter 13
01:07:40.000 : en:Chapter 14
01:13:09.000 : en:Chapter 15

 

Скриншоты



Релиз от:


Статистика торрента
Раздают: 186 Качают: 34 Размер: 1.45GB Скачали: 14
Имя файла: 37080_-rutor.org-WTFK.torrent
Похожие торренты
Отзывы пользователей
Добавить отзыв