1.46GB / Распутное детство / Maladolescenza / Spielen wir Liebe (Пьер Джузеппе Мурджа) [1977, мелодрама, драма, эротика, DVDRip-AVC]

Категория: фильмы » Эротика
рейтинг из 5
  • Добавил: zlidny
  • Дата: 25/09/14, 12:10:31
  • Просмотры: 2783
  • Отзывы: 0
?????
Название игры:
Год выхода игры:
Жанр игры: Эротика

Перевод: Профессиональный (одноголосый), cубтитры: отсутствуют
Формат: DVDRip-AVC, MKV, H.264, AC3
Страна: Германия (ФРГ), Италия
Режиссер: Пьер Джузеппе Мурджа
Жанр: мелодрама, драма, эротика
Продолжительность: 01:30:59
Год выпуска: 1977
В ролях: Лара Вендель, Ева Йонеско, Мартин Лоб

Описание: Лес, его таинственными местами: развалинами, пещерами, водопадом, озером, становится местом постоянных встреч 12-летний Лауры с несколько чудаковатым мальчиком Фабрицио, который испытывает серьезные проблемы кризиса переходного возраста. Первая близость, и ей кажется, что она самая счастливая на белом свете и их совместное счастье неразрушимо. Однако любовь, подчеркнутая сексом, приносит плоды проблем и изрядную долю разочарования.

Мальчик, в буквальном смысле слова, начинает измываться над несчастной Лаурой, над ее привязанностью и ее чувствами. Он демонстративно унижает ее. Игра принимает жесткий и даже жестокий характер. Лаура оказывается поставлена в положение рабыни, безмерно любящей своего повелителя. И в этом спектакле Фабрицио активно подыгрывает Сильвия, столь же юная как и Лаура, но более дерзкая и нахальная. Обеим девушкам нравится Фабрицио. Напряженность между тремя персонажами любовного треугольника возрастает и достигнув пика — разрывается трагедией.



Видео: 720x552@1015x552 (1,85:1), 25,000 fps, AVC (х264), High@L4.1, ~ 2103 kbps avg, 0.212bit/pixel
Аудио: 48.0 kHz, AC3, (Front: L R) , 2 ch ~192Kbps avg
 

MediaInfo
Общее
Уникальный идентификатор : 198419178333969286680811890237976712889 (0x954624CA23D126DBB1B8CD70B89596B9)
Полное имя : D:\Maladolescenza_1977.DVDRipAVC.mkv
Формат : Matroska
Версия формата : Version 2
Размер файла : 1,46 Гбайт
Продолжительность : 1 ч. 30 м.
Общий поток : 2297 Кбит/сек
Дата кодирования : UTC 2014-03-16 10:38:30
Программа кодирования : mkvmerge v6.1.0 ('Old Devil') built on Mar 4 2013 09:10:42
Библиотека кодирования : libebml v1.3.0 + libmatroska v1.4.0

Видео
Идентификатор : 1
Формат : AVC
Формат/Информация : Advanced Video Codec
Профиль формата : High@L4.1
Параметр CABAC формата : Да
Параметр ReFrames формата : 8 кадров
Идентификатор кодека : V_MPEG4/ISO/AVC
Продолжительность : 1 ч. 30 м.
Битрейт : 2103 Кбит/сек
Ширина : 720 пикселей
Высота : 552 пикселя
Соотношение сторон : 1,85:1
Соотношение сторон в оригинале : 1,85:1
Режим частоты кадров : Постоянный
Частота кадров : 25,000 кадров/сек
Цветовое пространство : YUV
Субдискретизация насыщенности : 4:2:0
Битовая глубина : 8 бит
Тип развёртки : Прогрессивная
Бит/(Пиксели*Кадры) : 0.212
Размер потока : 1,31 Гбайт (90%)
Библиотека кодирования : x264 core 130 r2273 b3065e6
Настройки программы : cabac=1 / ref=8 / deblock=1:-2:-1 / analyse=0x3:0x113 / me=umh / subme=10 / psy=1 / psy_rd=1.00:0.20 / mixed_ref=1 / me_range=32 / chroma_me=1 / trellis=2 / 8x8dct=1 / cqm=0 / deadzone=21,11 / fast_pskip=0 / chroma_qp_offset=-3 / threads=12 / lookahead_threads=1 / sliced_threads=0 / nr=0 / decimate=0 / interlaced=0 / bluray_compat=0 / constrained_intra=0 / bframes=3 / b_pyramid=2 / b_adapt=2 / b_bias=0 / direct=3 / weightb=1 / open_gop=0 / weightp=2 / keyint=250 / keyint_min=25 / scenecut=40 / intra_refresh=0 / rc_lookahead=60 / rc=2pass / mbtree=1 / bitrate=2103 / ratetol=1.0 / qcomp=0.60 / qpmin=0 / qpmax=69 / qpstep=4 / cplxblur=20.0 / qblur=0.5 / vbv_maxrate=50000 / vbv_bufsize=50000 / nal_hrd=none / ip_ratio=1.40 / aq=1:1.00
Default : Да
Forced : Нет

Аудио
Идентификатор : 2
Формат : AC-3
Формат/Информация : Audio Coding 3
Расширение режима : CM (complete main)
Параметр Endianness формата : Big
Идентификатор кодека : A_AC3
Продолжительность : 1 ч. 30 м.
Вид битрейта : Постоянный
Битрейт : 192 Кбит/сек
Каналы : 2 канала
Расположение каналов : Front: L R
Частота : 48,0 КГц
Битовая глубина : 16 бит
Метод сжатия : С потерями
Размер потока : 125 Мбайт (8%)
Default : Да
Forced : Нет

Статистика торрента
Раздают: 0 Качают: 33 Размер: 1.46GB Скачали: 80
Имя файла: 37895_Maladolescenza_.torrent
Похожие торренты
Отзывы пользователей
Добавить отзыв