1.39GB / Кровавая баня в старшей школе: Часть 2 / Bloodbath at Pinky High 2 (Тошия Коминами) [2012, эротика, боевик, WEBRip-AVC]

Категория: фильмы » Эротика
рейтинг из 5
  • Добавил: zlidny
  • Дата: 23/10/14, 10:51:07
  • Просмотры: 448
  • Отзывы: 0
?????
Название игры:
Год выхода игры:
Жанр игры: Эротика

Перевод: Любительский (одноголосый) [den904]

Субтитры: отсутствуют

Формат: WEBRip-AVC, MKV, H.264, AC3

Страна: Япония

Режиссер: Тошия Коминами

Жанр: эротика, боевик

Продолжительность: 01:22:18

Год выпуска: 2012

В ролях: Асами, Тошия Коминами, Хошими Рика, Асахина Акари и др.

Описание: В фильме показана Старшая школа для девочек, где царят мордобои, проституция... В школе орудуют две группировки, которые пытаются установить свое господство.

Рейтинг на IMDB и КиноПоиске: отсутствует

Видео: 718x480@850x480 (16:9), 25.000 fps, AVC (H.264), High@L3.0 ~ 2173 Кbps, 0.252 bit/pixel
Аудио: 48 kHz, AC3 Dolby Digital, 2/0 (L,R) ch, ~192 kbps
 

MediaInfo
General
Unique ID : 184542414488997351775524881828675898613 (0x8AD5938253CF8F21B4C17E77C564CCF5)
Complete name : E:\High 2-Bloodbath at Pinky_Klayd X.mkv
Format : Matroska
File size : 1.39 GiB
Duration : 1h 22mn
Overall bit rate : 2 413 Kbps
Encoded date : UTC 2014-07-17 14:56:11
Writing application : mkvmerge v6.2.0 ('Promised Land') built on Apr 28 2013 12:22:01
Writing library : libebml v1.3.0 + libmatroska v1.4.0

Video
ID : 1
Format : AVC
Format/Info : Advanced Video Codec
Format profile : High@L3.0
Format settings, CABAC : Yes
Format settings, ReFrames : 6 frames
Codec ID : V_MPEG4/ISO/AVC
Duration : 1h 22mn
Bit rate : 2 173 Kbps
Width : 718 pixels
Height : 480 pixels
Display aspect ratio : 16:9
Original display aspect ratio : 16:9
Frame rate mode : Variable
Frame rate : 25.000 fps
Color space : YUV
Chroma subsampling : 4:2:0
Bit depth : 8 bits
Scan type : Progressive
Bits/(Pixel*Frame) : 0.252
Stream size : 1.25 GiB (90%)
Writing library : x264 core 130 r2273 b3065e6
Encoding settings : cabac=1 / ref=6 / deblock=1:-2:-2 / analyse=0x3:0x133 / me=umh / subme=9 / psy=1 / psy_rd=1.00:0.00 / mixed_ref=1 / me_range=24 / chroma_me=1 / trellis=2 / 8x8dct=1 / cqm=0 / deadzone=21,11 / fast_pskip=0 / chroma_qp_offset=-2 / threads=12 / lookahead_threads=1 / sliced_threads=0 / nr=0 / decimate=1 / interlaced=0 / bluray_compat=0 / constrained_intra=0 / bframes=6 / b_pyramid=2 / b_adapt=2 / b_bias=0 / direct=3 / weightb=1 / open_gop=0 / weightp=2 / keyint=250 / keyint_min=25 / scenecut=40 / intra_refresh=0 / rc_lookahead=50 / rc=crf / mbtree=1 / crf=18.0 / qcomp=0.60 / qpmin=0 / qpmax=69 / qpstep=4 / ip_ratio=1.40 / aq=1:1.20
Language : English
Color primaries : BT.601-6 525, BT.1358 525, BT.1700 NTSC, SMPTE 170M
Transfer characteristics : BT.709-5, BT.1361
Matrix coefficients : BT.601-6 525, BT.1358 525, BT.1700 NTSC, SMPTE 170M

Audio
ID : 2
Format : AC-3
Format/Info : Audio Coding 3
Mode extension : CM (complete main)
Codec ID : A_AC3
Duration : 1h 22mn
Bit rate mode : Constant
Bit rate : 192 Kbps
Channel(s) : 2 channels
Channel positions : Front: L R
Sampling rate : 48.0 KHz
Bit depth : 16 bits
Compression mode : Lossy
Stream size : 113 MiB (8%)
 

Статистика торрента
Раздают: 245 Качают: 193 Размер: 1.39GB Скачали: 33
Имя файла: 38748_High_2-Bloodbat.torrent
Похожие торренты
Отзывы пользователей
Добавить отзыв