Призрачная красота / Collateral Beauty (2016) CamRip

Категория: фильмы » Драмы
рейтинг из 5
  • Добавил: zlidny
  • Дата: 19/12/16, 11:59:16
  • Просмотры: 115
  • Отзывы: 0
?????
Название игры:
Год выхода игры:
Жанр игры: Драмы

Производство: США, Anonymous Content, Palm-Star Entertainment

Жанр: Драма



Режиссер: Дэвид Фрэнкел

Продюсер: Майкл Бедерман, Брюс Берман, Энтони Брегман

Актеры: Уилл Смит, Эдвард Нортон, Кейт Уинслет, Майкл Пенья, Хелен Миррен, Наоми Харрис, Кира Найтли, Джейкоб Латимор, Энн Дауд, Лиза Колон-Зайас



Описание:

Главный герой работает в рекламном агентстве Нью-Йорка. Не так давно в его личной жизни произошла трагедия, ввергнувшая его в тяжелейшую депрессию. Коллеги пытаются помочь и разрабатывают нетрадиционный план по возвращению друга обратно на твёрдую почву, однако план срабатывает неожиданным образом.



pic picpic

Возраст: 16+ (зрителям, достигшим 16 лет)

Рейтинг MPAA: PG-13 (детям до 13 лет просмотр нежелателен)

Дата мировой премьеры: 12 декабря 2016

Дата российской премьеры: 15 декабря 2016



Продолжительность: 01:32:21

Качество видео: CamRip

Перевод: Дублированный

Вид субтитров: Отсутствуют

Реклама: Присутствуют аудио и текстовая, видео реклама вырезана



Видео: Xvid, 720x304, ~1915 Кбит/с

Аудио: AC3, 2 ch, 192 Кбит/с, CBR




Mediainfo:



 
Complete name : E:\Torrent\Collateral.Beauty.2016.CAMRip.avi
Format : AVI
Format/Info : Audio Video Interleave
File size : 1.36 GiB
Duration : 1 h 31 min
Overall bit rate : 2 118 kb/s
Writing application : VirtualDubMod 1.5.10.2 (build 2540/release)
Writing library : VirtualDubMod build 2540/release

Video
ID : 0
Format : MPEG-4 Visual
Format profile : Advanced Simple@L5
Format settings, BVOP : 2
Format settings, QPel : No
Format settings, GMC : No warppoints
Format settings, Matrix : Default (H.263)
Muxing mode : Packed bitstream
Codec ID : XVID
Codec ID/Hint : XviD
Duration : 1 h 31 min
Bit rate : 1 914 kb/s
Width : 720 pixels
Height : 304 pixels
Display aspect ratio : 2.35:1
Frame rate : 29.970 (30000/1001) FPS
Color space : YUV
Chroma subsampling : 4:2:0
Bit depth : 8 bits
Scan type : Progressive
Compression mode : Lossy
Bits/(Pixel*Frame) : 0.292
Stream size : 1.23 GiB (90 wacko
Writing library : XviD 73

Audio
ID : 1
Format : AC-3
Format/Info : Audio Coding 3
Mode extension : CM (complete main)
Format settings, Endianness : Big
Codec ID : 2000
Duration : 1 h 31 min
Bit rate mode : Constant
Bit rate : 192 kb/s
Channel(s) : 2 channels
Channel positions : Front: L R
Sampling rate : 48.0 kHz
Frame rate : 31.250 FPS (1536 spf)
Bit depth : 16 bits
Compression mode : Lossy
Stream size : 126 MiB (9 wacko
Alignment : Split accross interleaves
Interleave, duration : 33 ms (1.00 video frame)
Interleave, preload duratio : 500 ms


 




Скриншоты:

pic pic pic pic







Скачал сам, помоги другим! Пиявки полезны только в медицине


Статистика торрента
Раздают: 224 Качают: 29 Размер: 1.36GB Скачали: 2
Имя файла: 41830_-NNMClub.to-Col.torrent
Похожие торренты
Отзывы пользователей
Добавить отзыв