Оборотень / Ginger Snaps (2000) BDRip 720p от MediaClub | P2

Категория: фильмы » Драмы
рейтинг из 5
  • Добавил: zlidny
  • Дата: 31/07/14, 11:26:26
  • Просмотры: 261
  • Отзывы: 0
?????
Название игры:
Год выхода игры:
Жанр игры: Ужасы, Драмы

Название: Оборотень
Оригинальное название: Ginger Snaps
Год выпуска: 2000
Жанр: Ужасы, драма
Режиссер: Джон Фоусет
В ролях: Эмили Перкинс, Кэтрин Изабель, Крис Лемке, Мими Роджерс, Джесси Мосс, Даниэль Хэмптон, Джон Буржуа, Питер Келеган, Кристофер Редман, Джимми МакИннис

Описание: 16-летняя Джинджер и ее младшая сестра Бриджитт очень любят снимать на видеокамеру «фильмы ужасов», безжалостно расходуя огромное количество красной краски. И вообще развлекаются как только могут. Однажды во время одной из ночных вылазок на Джинджер нападает какое-то огромное чудовище. Бриджитт помогает скрыть следы укусов от родителей. К удивлению сестер, раны быстро затягиваются. Но когда с Джинджер начинают происходить какие-то странные изменения, девочки понимают, что их проблемы только начинаются…



Выпущено: Канада / Canadian Film or Video Production Tax Credit (CPTC), Canadian Television Fund, Casablanca Sound and Picture, Copper Heart Entertainment, Lions Gate Films Inc
Продолжительность: 01:48:09
Перевод: Профессиональный двухголосый

Файл
Качество: BDRip 720p
Видео: MPEG-4 AVC, 8000 Кбит/с, 1280x720, 23.976 кадр/с
Аудио #1: Русский (AC3, 6 ch, 448 Кбит/с) / Профессиональный двухголосый (Twister)
Аудио #2: Английский (DTS, 6 ch, 1509 Кбит/с)
Субтитры: Русские, английские
 

Скриншоты


MI
Общее
Уникальный идентификатор : 227380907037845937147935106915869254502 (0xAB0FF8427E5C719BA2452D50C671E366)
Полное имя : D:Mои раздачиOboroten'.2000.BDRip.720p-MediaClub.mkv
Формат : Matroska
Версия формата : Version 4 / Version 2
Размер файла : 7,52 Гбайт
Продолжительность : 1 ч. 48 м.
Общий поток : 9957 Кбит/сек
Название фильма : -=MediaClub-kaspr=-
Дата кодирования : UTC 2014-07-31 05:56:19
Программа кодирования : mkvmerge v6.9.1 ('Blue Panther') 64bit built on Apr 18 2014 18:23:38
Библиотека кодирования : libebml v1.3.0 + libmatroska v1.4.1

Видео
Идентификатор : 1
Формат : AVC
Формат/Информация : Advanced Video Codec
Профиль формата : High@L4.1
Параметр CABAC формата : Да
Параметр ReFrames формата : 9 кадров
Идентификатор кодека : V_MPEG4/ISO/AVC
Продолжительность : 1 ч. 48 м.
Битрейт : 8000 Кбит/сек
Ширина : 1280 пикселей
Высота : 720 пикселей
Соотношение сторон : 16:9
Режим частоты кадров : Постоянный
Частота кадров : 23,976 кадра/сек
Цветовое пространство : YUV
Субдискретизация насыщенности : 4:2:0
Битовая глубина : 8 бит
Тип развёртки : Прогрессивная
Бит/(Пиксели*Кадры) : 0.362
Размер потока : 5,89 Гбайт (78%)
Заголовок : -=MediaClub-kaspr=-
Библиотека кодирования : x264 core 142 r2431+42 c69a006 tMod [8-bit@4:2:0 X86_64]
Настройки программы : cabac=1 / ref=9 / deblock=1:-3:-3 / analyse=0x3:0x113 / me=umh / subme=11 / psy=1 / fade_compensate=0.00 / psy_rd=1.00:0.20 / mixed_ref=1 / me_range=32 / chroma_me=1 / trellis=2 / 8x8dct=1 / cqm=0 / deadzone=21,11 / fast_pskip=0 / chroma_qp_offset=-3 / threads=12 / lookahead_threads=3 / sliced_threads=0 / nr=0 / decimate=0 / interlaced=0 / bluray_compat=0 / constrained_intra=0 / fgo=0 / bframes=12 / b_pyramid=2 / b_adapt=2 / b_bias=0 / direct=3 / weightb=1 / open_gop=0 / weightp=2 / keyint=240 / keyint_min=23 / scenecut=40 / intra_refresh=0 / rc=2pass / mbtree=0 / bitrate=8000 / ratetol=1.0 / qcomp=0.60 / qpmin=0:0:0 / qpmax=69:69:69 / qpstep=4 / cplxblur=20.0 / qblur=0.5 / ip_ratio=1.40 / pb_ratio=1.30 / aq=4:0.80 / aq-sensitivity=10.00 / aq-factor=1.00:1.00:1.00 / aq2=0 / aq3=0
Default : Да
Forced : Да

Аудио #1
Идентификатор : 2
Формат : AC-3
Формат/Информация : Audio Coding 3
Расширение режима : CM (complete main)
Параметр Endianness формата : Big
Идентификатор кодека : A_AC3
Продолжительность : 1 ч. 48 м.
Вид битрейта : Постоянный
Битрейт : 448 Кбит/сек
Каналы : 6 каналов
Расположение каналов : Front: L C R, Side: L R, LFE
Частота : 48,0 КГц
Битовая глубина : 16 бит
Метод сжатия : С потерями
Размер потока : 347 Мбайт (4%)
Заголовок : DVO (Twister)
Язык : Russian
Default : Да
Forced : Да

Аудио #2
Идентификатор : 3
Формат : DTS
Формат/Информация : Digital Theater Systems
Режим : 16
Параметр Endianness формата : Big
Идентификатор кодека : A_DTS
Продолжительность : 1 ч. 48 м.
Вид битрейта : Постоянный
Битрейт : 1509 Кбит/сек
Каналы : 6 каналов
Расположение каналов : Front: L C R, Side: L R, LFE
Частота : 48,0 КГц
Битовая глубина : 24 бит
Метод сжатия : С потерями
Размер потока : 1,14 Гбайт (15%)
Язык : English
Default : Нет
Forced : Нет

Текст #1
Идентификатор : 4
Формат : UTF-8
Идентификатор кодека : S_TEXT/UTF8
Идентификатор кодека/Информация : UTF-8 Plain Text
Язык : Russian
Default : Нет
Forced : Нет

Текст #2
Идентификатор : 5
Формат : UTF-8
Идентификатор кодека : S_TEXT/UTF8
Идентификатор кодека/Информация : UTF-8 Plain Text
Язык : English
Default : Нет
Forced : Нет

Меню
00:00:00.000 : en:Chapter 01
00:05:00.000 : en:Chapter 02
00:10:00.000 : en:Chapter 03
00:15:00.000 : en:Chapter 04
00:20:00.000 : en:Chapter 05
00:25:00.000 : en:Chapter 06
00:30:00.000 : en:Chapter 07
00:35:00.000 : en:Chapter 08
00:40:00.000 : en:Chapter 09
00:45:00.000 : en:Chapter 10
00:50:00.000 : en:Chapter 11
00:55:00.000 : en:Chapter 12
01:00:00.000 : en:Chapter 13
01:05:00.000 : en:Chapter 14
01:10:00.000 : en:Chapter 15
01:15:00.000 : en:Chapter 16
01:20:00.000 : en:Chapter 17
01:25:00.000 : en:Chapter 18
01:30:00.000 : en:Chapter 19
01:35:00.000 : en:Chapter 20
01:40:00.000 : en:Chapter 21
01:45:00.000 : en:Chapter 22



Релиз: |


Статистика торрента
Раздают: 381 Качают: 66 Размер: 7.52GB Скачали: 12
Имя файла: 36477_-rutor.org-Obor.torrent
Похожие торренты
Отзывы пользователей
Добавить отзыв