Чудо на Гудзоне / Sully (2016) BDRip [H.264/1080p]

Категория: фильмы » Драмы
рейтинг из 5
  • Добавил: zlidny
  • Дата: 19/12/16, 11:42:09
  • Просмотры: 189
  • Отзывы: 0
?????
Название игры:
Год выхода игры:
Жанр игры: Драмы

Производство: США / Warner Bros. Pictures, Village Roadshow Pictures

Жанр: драма, биография



Режиссер: Клинт Иствуд

Продюсер: Клинт Иствуд, Фрэнк Маршалл, Брюс Берман

Актеры: Том Хэнкс, Аарон Экхарт, Валери Махаффей, Делфи Хэррингтон, Майк О`Мэлли, Джейми Шеридан, Анна Ганн, Холт МакКэллани, Ахмед Хуссэйн, Лора Линни



Описание:

Произошедшее 15 января 2009 года назовут «Чудом на Гудзоне». В тот день капитан рейса 1549 Чесли Салленбергер совершил аварийную посадку самолета A320 на холодные воды реки Гудзон в Нью-Йорке. При этом никто из находившихся на борту 155 человек не пострадал. Но, несмотря на все почести со стороны общественности и СМИ, было начато расследование, которое угрожало профессиональной репутации и многолетней карьере капитана Салли.



pic pic

Возраст: 16+ (зрителям, достигшим 16 лет)

Рейтинг MPAA: PG-13 (детям до 13 лет просмотр нежелателен)

Дата мировой премьеры: 2 сентября 2016

Дата премьеры в России: 8 сентября 2016, «Каро-Премьер»




Релиз от: HDclub pic

Продолжительность: 01:35:50

Качество: BDRip 1080p pic

Перевод: Дублированный (Лицензия BD CEE)

Вид субтитров: Вшитые отключаемые

Язык субтитров: Русский, Английский, Украинский



Видео: AVC/H.264, 1920x804, (2.40:1), 13312 kbps, 23.976 fps

Аудио: AC3, 6 ch, 448 kbps - Русский

Аудио: AAC, 2 ch, 128 kbps - Украинский

Аудио: AC3, 6 ch, 640 kbps - Английский




MediaInfo:









Код: выделить все



General

Unique ID                                : 185989715091412822345644323254427783073 (0x8BEC50F02415F43A9F81D393CC350FA1)

Complete name                            : Sully.2016.1080p.BluRay.Rus.Ukr.Eng.HDCLUB.mkv

Format                                   : Matroska

Format version                           : Version 2

File size                                : 9.73 GiB

Duration                                 : 1h 35mn

Overall bit rate                         : 14.5 Mbps

Movie name                               : Sully (2016) - Release for HDCLUB

Encoded date                             : UTC 2016-12-18 19:38:04

Writing application                      : mkvmerge v3.4.0 ('Rapunzel' wink built on May 15 2010 09:38:20

Writing library                          : libebml v0.8.0 + libmatroska v0.9.0

Attachements                             : cover.jpg



Video

ID                                       : 1

Format                                   : AVC

Format/Info                              : Advanced Video Codec

Format profile                           : High@L4.1

Format settings, CABAC                   : Yes

Format settings, ReFrames                : 5 frames

Codec ID                                 : V_MPEG4/ISO/AVC

Duration                                 : 1h 35mn

Width                                    : 1 920 pixels

Height                                   : 804 pixels

Display aspect ratio                     : 2.40:1

Frame rate mode                          : Constant

Frame rate                               : 23.976 fps

Color space                              : YUV

Chroma subsampling                       : 4:2:0

Bit depth                                : 8 bits

Scan type                                : Progressive

Title                                    : Sully (2016) - Release for HDCLUB

Writing library                          : x264 core 148 r2744kMod b97ae06

Encoding settings                        : cabac=1 / ref=5 / deblock=1:-2:-2 / analyse=0x3:0x133 / me=umh / subme=11 / psy=1 / fade_compensate=0.00 / psy_rd=1.00:0.00 / mixed_ref=1 / me_range=32 / chroma_me=1 / trellis=2 / 8x8dct=1 / cqm=0 / deadzone=21,11 / fast_pskip=1 / chroma_qp_offset=-2 / threads=12 / lookahead_threads=3 / sliced_threads=0 / nr=0 / decimate=1 / interlaced=0 / bluray_compat=0 / constrained_intra=0 / bframes=10 / b_pyramid=2 / b_adapt=2 / b_bias=0 / direct=1 / weightb=1 / open_gop=0 / weightp=2 / keyint=250 / keyint_min=23 / scenecut=40 / intra_refresh=0 / rc_lookahead=60 / rc=crf / mbtree=0 / crf=14.5000 / qcomp=0.60 / qpmin=0 / qpmax=69 / qpstep=4 / vbv_maxrate=62500 / vbv_bufsize=78125 / crf_max=0.0 / nal_hrd=none / filler=0 / ip_ratio=1.40 / pb_ratio=1.30 / aq=1:0.80

Language                                 : English

Default                                  : Yes

Forced                                   : No

Color range                              : Limited

Color primaries                          : BT.709

Transfer characteristics                 : BT.709

Matrix coefficients                      : BT.709



Audio #1

ID                                       : 2

Format                                   : AC-3

Format/Info                              : Audio Coding 3

Mode extension                           : CM (complete main)

Format settings, Endianness              : Big

Codec ID                                 : A_AC3

Duration                                 : 1h 35mn

Bit rate mode                            : Constant

Bit rate                                 : 448 Kbps

Channel(s)                               : 6 channels

Channel positions                        : Front: L C R, Side: L R, LFE

Sampling rate                            : 48.0 KHz

Bit depth                                : 16 bits

Compression mode                         : Lossy

Stream size                              : 307 MiB (3 wacko

Title                                    : AC3 5.1 @ 448 kbps - DUB, Blu-ray CEE

Language                                 : Russian

Default                                  : Yes

Forced                                   : No



Audio #2

ID                                       : 3

Format                                   : AAC

Format/Info                              : Advanced Audio Codec

Format profile                           : HE-AAC / LC

Codec ID                                 : A_AAC

Duration                                 : 1h 35mn

Channel(s)                               : 2 channels

Channel positions                        : Front: L R

Sampling rate                            : 88.2 KHz / 44.1 KHz

Compression mode                         : Lossy

Title                                    : AAC 2.0 @ 128 kbps - DUB, iTunes

Language                                 : Ukrainian

Default                                  : No

Forced                                   : No



Audio #3

ID                                       : 4

Format                                   : AC-3

Format/Info                              : Audio Coding 3

Mode extension                           : CM (complete main)

Format settings, Endianness              : Big

Codec ID                                 : A_AC3

Duration                                 : 1h 35mn

Bit rate mode                            : Constant

Bit rate                                 : 640 Kbps

Channel(s)                               : 6 channels

Channel positions                        : Front: L C R, Side: L R, LFE

Sampling rate                            : 48.0 KHz

Bit depth                                : 16 bits

Compression mode                         : Lossy

Stream size                              : 439 MiB (4 wacko

Title                                    : AC3 5.1 @ 640 kbps

Language                                 : English

Default                                  : No

Forced                                   : No



Text #1

ID                                       : 5

Format                                   : UTF-8

Codec ID                                 : S_TEXT/UTF8

Codec ID/Info                            : UTF-8 Plain Text

Title                                    : Forced, iTunes

Language                                 : Russian

Default                                  : Yes

Forced                                   : No



Text #2

ID                                       : 6

Format                                   : UTF-8

Codec ID                                 : S_TEXT/UTF8

Codec ID/Info                            : UTF-8 Plain Text

Title                                    : iTunes

Language                                 : Russian

Default                                  : No

Forced                                   : No



Text #3

ID                                       : 7

Format                                   : UTF-8

Codec ID                                 : S_TEXT/UTF8

Codec ID/Info                            : UTF-8 Plain Text

Title                                    : Forced, iTunes

Language                                 : Ukrainian

Default                                  : No

Forced                                   : No



Text #4

ID                                       : 8

Format                                   : UTF-8

Codec ID                                 : S_TEXT/UTF8

Codec ID/Info                            : UTF-8 Plain Text

Language                                 : English

Default                                  : No

Forced                                   : No



Text #5

ID                                       : 9

Format                                   : UTF-8

Codec ID                                 : S_TEXT/UTF8

Codec ID/Info                            : UTF-8 Plain Text

Title                                    : SDH

Language                                 : English

Default                                  : No

Forced                                   : No



Menu

00:00:00.000                             : en:Chapter 1

00:11:12.505                             : en:Chapter 2

00:18:06.168                             : en:Chapter 3

00:29:57.921                             : en:Chapter 4

00:38:55.416                             : en:Chapter 5

00:49:20.749                             : en:Chapter 6

01:00:50.856                             : en:Chapter 7

01:08:16.384                             : en:Chapter 8

01:18:09.810                             : en:Chapter 9

01:26:59.798                             : en:Chapter 10





Скриншоты:

pic pic pic pic









Скачал сам, помоги другим! Пиявки полезны только в медицине


Статистика торрента
Раздают: 57 Качают: 102 Размер: 9.73GB Скачали: 3
Имя файла: 41824_-NNMClub.to-Sul.torrent
Похожие торренты
Отзывы пользователей
Добавить отзыв