7.61GB / Принцесса Монако / Grace of Monaco (2014) BDRip 1080p от MediaClub | Лицензия

Категория: фильмы » Драмы
рейтинг из 5
  • Добавил: zlidny
  • Дата: 26/07/14, 10:50:13
  • Просмотры: 289
  • Отзывы: 0
?????
Название игры:
Год выхода игры:
Жанр игры: Мелодрамы, Драмы

Название: Принцесса Монако
Оригинальное название: Grace of Monaco
Год выпуска: 2014
Жанр: Драма, мелодрама, биография
Режиссер: Оливье Даан
В ролях: Николь Кидман, Пас Вега, Майло Вентимилья, Тим Рот, Паркер Поузи, Джеральдин Сомервилль, Дерек Джекоби, Фрэнк Ланджелла, Роджер Эштон-Гриффитс, Николас Фэррел

О фильме: Весь Голливуд лежал у ее ног — роскошные виллы, oскаровские приемы и шикарные мужчины, но она выбрала королевский дворец, аристократические балы и благородного принца из маленькой страны недалеко от Франции. Она была королевой Голливуда, но предпочла стать Принцессой Монако.



Выпущено: Франция, США, Бельгия, Италия, Швейцария, Canal+ [fr], Lucky Red, Silver Reel, Stone Angels, TF1 Films Production, uMedia Family, YRF Entertainment
Продолжительность: 01:42:20
Перевод: Дублированный

Файл
Качество: BDRip 1080p
Видео: MPEG-4 AVC, 8500 Кбит/с, 1920x800, 24.000 кадр/с
Аудио #1: Русский (AC3, 6 ch, 640 Кбит/с) / Дублированный (Blu-ray RUS)
Аудио #2: Русский (DTS, 6 ch, 1510 Кбит/с) / Дублированный (Blu-ray RUS)

Семпл
 

Скриншоты


MI
x264 [info]: frame I:962 Avg QP:16.35 size:155063
x264 [info]: frame P:32578 Avg QP:19.22 size: 69296
x264 [info]: frame B:113824 Avg QP:21.42 size: 36130
***************************************************************************************************
Общее
Уникальный идентификатор : 174984669261683032158228076312640061943 (0x83A4D2497F43EC68918E0A5E234F81F7)
Полное имя : D:Mои раздачиPrincessa.Monako.2014.BDRip.1080p-MediaClub.mkv
Формат : Matroska
Версия формата : Version 4 / Version 2
Размер файла : 7,61 Гбайт
Продолжительность : 1 ч. 42 м.
Общий поток : 10,6 Мбит/сек
Название фильма : -=MediaClub-kaspr=-
Дата кодирования : UTC 2014-07-26 04:47:27
Программа кодирования : mkvmerge v6.9.1 ('Blue Panther') 64bit built on Apr 18 2014 18:23:38
Библиотека кодирования : libebml v1.3.0 + libmatroska v1.4.1

Видео
Идентификатор : 1
Формат : AVC
Формат/Информация : Advanced Video Codec
Профиль формата : High@L4.1
Параметр CABAC формата : Да
Параметр ReFrames формата : 5 кадров
Идентификатор кодека : V_MPEG4/ISO/AVC
Продолжительность : 1 ч. 42 м.
Битрейт : 8500 Кбит/сек
Ширина : 1920 пикселей
Высота : 800 пикселей
Соотношение сторон : 2,40:1
Режим частоты кадров : Постоянный
Частота кадров : 24,000 кадра/сек
Цветовое пространство : YUV
Субдискретизация насыщенности : 4:2:0
Битовая глубина : 8 бит
Тип развёртки : Прогрессивная
Бит/(Пиксели*Кадры) : 0.231
Размер потока : 5,92 Гбайт (78%)
Заголовок : -=MediaClub-kaspr=-
Библиотека кодирования : x264 core 142 r2431+42 c69a006 tMod [8-bit@4:2:0 X86_64]
Настройки программы : cabac=1 / ref=5 / deblock=1:-3:-3 / analyse=0x3:0x113 / me=umh / subme=11 / psy=1 / fade_compensate=0.00 / psy_rd=1.00:0.20 / mixed_ref=1 / me_range=32 / chroma_me=1 / trellis=2 / 8x8dct=1 / cqm=0 / deadzone=21,11 / fast_pskip=0 / chroma_qp_offset=-3 / threads=12 / lookahead_threads=2 / sliced_threads=0 / nr=0 / decimate=0 / interlaced=0 / bluray_compat=0 / constrained_intra=0 / fgo=0 / bframes=8 / b_pyramid=2 / b_adapt=2 / b_bias=0 / direct=3 / weightb=1 / open_gop=0 / weightp=2 / keyint=240 / keyint_min=24 / scenecut=40 / intra_refresh=0 / rc=2pass / mbtree=0 / bitrate=8500 / ratetol=1.0 / qcomp=0.60 / qpmin=0:0:0 / qpmax=69:69:69 / qpstep=4 / cplxblur=20.0 / qblur=0.5 / ip_ratio=1.40 / pb_ratio=1.30 / aq=4:0.80 / aq-sensitivity=10.00 / aq-factor=1.00:1.00:1.00 / aq2=0 / aq3=0
Язык : Russian
Default : Да
Forced : Да

Аудио #1
Идентификатор : 2
Формат : AC-3
Формат/Информация : Audio Coding 3
Расширение режима : CM (complete main)
Параметр Endianness формата : Big
Идентификатор кодека : A_AC3
Продолжительность : 1 ч. 42 м.
Вид битрейта : Постоянный
Битрейт : 640 Кбит/сек
Каналы : 6 каналов
Расположение каналов : Front: L C R, Side: L R, LFE
Частота : 48,0 КГц
Битовая глубина : 16 бит
Метод сжатия : С потерями
Размер потока : 468 Мбайт (6%)
Заголовок : DUB-AC3
Язык : Russian
Default : Да
Forced : Да

Аудио #2
Идентификатор : 3
Формат : DTS
Формат/Информация : Digital Theater Systems
Режим : 16
Параметр Endianness формата : Big
Идентификатор кодека : A_DTS
Продолжительность : 1 ч. 42 м.
Вид битрейта : Постоянный
Битрейт : 1510 Кбит/сек
Каналы : 6 каналов
Расположение каналов : Front: L C R, Side: L R, LFE
Частота : 48,0 КГц
Битовая глубина : 24 бит
Метод сжатия : С потерями
Размер потока : 1,08 Гбайт (14%)
Заголовок : DUB-DTS
Язык : Russian
Default : Нет
Forced : Нет

Меню
00:00:00.000 : en:Chapter 01
00:10:21.625 : en:Chapter 02
00:16:54.291 : en:Chapter 03
00:24:42.125 : en:Chapter 04
00:33:10.708 : en:Chapter 05
00:43:16.666 : en:Chapter 06
00:50:10.875 : en:Chapter 07
00:58:07.500 : en:Chapter 08
01:08:56.000 : en:Chapter 09
01:14:05.833 : en:Chapter 10
01:20:07.500 : en:Chapter 11
01:31:18.958 : en:Chapter 12



Релиз: |


Статистика торрента
Раздают: 4 Качают: 164 Размер: 7.61GB Скачали: 21
Имя файла: 36329_-rutor.org-Prin.torrent
Похожие торренты
Отзывы пользователей
Добавить отзыв