698MB / Небеса реальны / Heaven Is for Real (Рэндалл Уоллас) [2014, драма, DVDRip]

Категория: фильмы » Драмы
рейтинг из 5
  • Добавил: zlidny
  • Дата: 18/07/14, 18:06:13
  • Просмотры: 172
  • Отзывы: 0
?????
Название игры:
Год выхода игры:
Жанр игры: Драмы

Перевод: Любительский (одноголосый) (Andi), субтитры: отсутствуют
Формат: DVDRip, AVI, XviD, AC3
Страна: США, Roth Films, Screen Gems, TriStar Pictures
Режиссер: Рэндалл Уоллас
Жанр: драма
Продолжительность: 01:39:29
Год выпуска: 2014
В ролях: Грег Киннер, Келли Райлли, Томас Хейден Чёрч, Коннор Корам, Лэйн Стайлз, Марго Мартиндейл, Джейкоб Варгас, Таня Ромеро, Дансо Гордон, Роб Моран
Описание:
Главный герой меняет свое мировоззрение после того, как его 4-летний сын выходит из комы и утверждает, что был в раю. В доказательство он приводит факты из жизни их семьи, которые просто не мог знать.



Видео: 640x272 (2.35:1), 23 976 fps, XviD MPEG 4 ~843 kbps avg, 0.202 bit/pixel
Аудио #1: Русский:48 kHz, AC3 Dolby Digital, 2/0 (L,R) ch, ~128 kbps [Любительский(одноголосый)]
Аудио #2: Английский:48 kHz, AC3 Dolby Digital, 2/0 (L,R) ch, ~256 kbps [Оригинал]
 

MI
General
Complete name : C:\Users\Владелец\Downloads\небо.avi
Format : AVI
Format/Info : Audio Video Interleave
File size : 698 MiB
Duration : 1h 39mn
Overall bit rate : 980 Kbps
Writing application : VirtualDubMod 1.5.10.2 (build 2540/release)
Writing library : VirtualDubMod build 2540/release

Video
ID : 0
Format : MPEG-4 Visual
Format profile : Advanced Simple@L5
Format settings, BVOP : 2
Format settings, QPel : No
Format settings, GMC : No warppoints
Format settings, Matrix : Default (H.263)
Codec ID : XVID
Codec ID/Hint : XviD
Duration : 1h 39mn
Bit rate : 843 Kbps
Width : 640 pixels
Height : 272 pixels
Display aspect ratio : 2.35:1
Frame rate : 23.976 fps
Color space : YUV
Chroma subsampling : 4:2:0
Bit depth : 8 bits
Scan type : Progressive
Compression mode : Lossy
Bits/(Pixel*Frame) : 0.202
Stream size : 600 MiB (86%)
Writing library : XviD 65

Audio
ID : 1
Format : AC-3
Format/Info : Audio Coding 3
Mode extension : CM (complete main)
Format settings, Endianness : Big
Codec ID : 2000
Duration : 1h 39mn
Bit rate mode : Constant
Bit rate : 128 Kbps
Channel(s) : 2 channels
Channel positions : Front: L R
Sampling rate : 48.0 KHz
Bit depth : 16 bits
Compression mode : Lossy
Stream size : 91.1 MiB (13%)
Alignment : Split accross interleaves
Interleave, duration : 42 ms (1.00 video frame)
Interleave, preload duration : 500 ms

скриншоты







Статистика торрента
Раздают: 100 Качают: 41 Размер: 698MB Скачали: 14
Имя файла: 35948_heaven.avi-tfil.torrent
Похожие торренты
Отзывы пользователей
Добавить отзыв