4.84GB / Старая школа / Old School (2014) PDTVRip (Сезон 1, серии 1-8 из 8) (AlexFilm)

Категория: фильмы » Драмы
рейтинг из 5
  • Добавил: zlidny
  • Дата: 15/07/14, 20:07:38
  • Просмотры: 131
  • Отзывы: 0
?????
Название игры:
Год выхода игры:
Жанр игры: Криминал, Драмы

Год выпуска: 2014
Страна: Австралия
Жанр: Криминал, драма

Перевод: Профессиональный многоголосый закадровый - AlexFilm

Режиссер: Грегор Джордан, Питер Темплмен, Пол Оливер
Актеры: Брайан Браун, Сэм Нилл, Малкольм Кеннард, Гарри Гринвуд, Джонатан Чан, Гленн Чоу, Вэл Атанассиу, Кейт Бокс, Юр Кович, Ханна Мэнгэн Лоуренс и др.

Описание:
Тед Маккейб, отставной полицейский, и Ленни Каилл, бывший преступник, собираются вместе, чтобы раскрывать преступные махинации и делать на этом деньги, избегая при этом гнева полиции и преступного мира.

pic picСЭМПЛ

Продолжительность: ~00:53:00 серия
Качество видео: PDTVRip
Формат: AVI
Видео: 704x400 (16:9), 25 fps, XviD ~1201 kbps, ~0.171 bit/pixel
Аудио Rus: 48 kHz, AC3, 2 ch, 192 kbps
Аудио Eng: 48 kHz, AC3, 2 ch, 192 kbps

Релиз-группа: AlexFilm
Озвучка: Михаил Суслов, Роман Сопко, Сергей Пономарёв, Татьяна Манетина (1-7), Евгения Тихонова (8)
Автор перевода: Константин Кривоногов

Тех. данные (MI)
Общее
Old School - Старая школа. Сезон 1. AlexFilm\Old.School.s01e01.Rus.Eng.AlexFilm.avi
Формат : AVI
Формат/Информация : Audio Video Interleave
Размер файла : 606 Мбайт
Продолжительность : 52 м.
Общий поток : 1599 Кбит/сек
Название фильма : Old School 1x01 Yesterday's Heroes @ AlexFilm
Программа кодирования : VirtualDubMod 1.5.10.2 (build 2542/release)

Видео
Идентификатор : 0
Формат : MPEG-4 Visual
Профиль формата : Advanced Simple@L5
Параметр BVOP формата : 1
Параметр QPel формата : Нет
Параметр GMC формата : Без точки перехода
Параметр матрицы формата : Default (MPEG)
Идентификатор кодека : XVID
Идентификатор кодека/Подсказка : XviD
Продолжительность : 52 м.
Битрейт : 1201 Кбит/сек
Ширина : 704 пикселя
Высота : 400 пикселей
Соотношение сторон : 16:9
Частота кадров : 25,000 кадров/сек
Цветовое пространство : YUV
Субдискретизация насыщенности : 4:2:0
Битовая глубина : 8 бит
Тип развёртки : Прогрессивная
Метод сжатия : С потерями
Бит/(Пиксели*Кадры) : 0.171
Размер потока : 455 Мбайт (75%)
Библиотека кодирования : XviD 1.2.1 (UTC 2008-12-04)

Аудио #1
Идентификатор : 1
Формат : AC-3
Формат/Информация : Audio Coding 3
Расширение режима : CM (complete main)
Параметр Endianness формата : Big
Идентификатор кодека : 2000
Продолжительность : 52 м.
Вид битрейта : Постоянный
Битрейт : 192 Кбит/сек
Каналы : 2 канала
Расположение каналов : Front: L R
Частота : 48,0 КГц
Битовая глубина : 16 бит
Метод сжатия : С потерями
Размер потока : 72,8 Мбайт (12%)
Выравнивание : Разделение по промежуткам
Продолжительность промежутка : 40 мс. (1,00 видеокадр)
Время предзагрузки промежутка : 500 мс.
Заголовок : Russian (AlexFilm)

Аудио #2
Идентификатор : 2
Формат : AC-3
Формат/Информация : Audio Coding 3
Расширение режима : CM (complete main)
Параметр Endianness формата : Big
Идентификатор кодека : 2000
Продолжительность : 52 м.
Вид битрейта : Постоянный
Битрейт : 192 Кбит/сек
Каналы : 2 канала
Расположение каналов : Front: L R
Частота : 48,0 КГц
Битовая глубина : 16 бит
Метод сжатия : С потерями
Размер потока : 72,8 Мбайт (12%)
Выравнивание : Разделение по промежуткам
Продолжительность промежутка : 40 мс. (1,00 видеокадр)
Время предзагрузки промежутка : 500 мс.
Заголовок : English
 
Список серий
1. Yesterday's Heroes / Герои вчерашнего дня
2. Smash Repairs / Авторемонт
3. Easy Money / Лёгкие деньги
4. Her Weight in Gold / Её вес в золоте
5. Tiny Dancer / Маленькая танцовщица
6. Sky the Towel / Взмах полотенцем
7. Dead Man Walking / Ходячий мертвец
8. All That Glitters / Всё, что блестит
 
Внимание! Раздача ведётся путём добавления новых серий

pic pic pic pic pic

pic pic pic pic pic


Статистика торрента
Раздают: 305 Качают: 171 Размер: 4.84GB Скачали: 16
Имя файла: 35901_-NNM-Club.me-Ol.torrent
Похожие торренты
Отзывы пользователей
Добавить отзыв