4.08GB / Водная жизнь / The Life Aquatic with Steve Zissou (Уэс Андерсон) [2004, драма, комедия, приключения, BDRip]

Категория: фильмы » Драмы
рейтинг из 5
  • Добавил: zlidny
  • Дата: 25/07/14, 19:10:14
  • Просмотры: 203
  • Отзывы: 0
?????
Название игры:
Год выхода игры:
Жанр игры: Комедии, Приключения, Драмы

Перевод: Профессиональный (многоголосый, закадровый)
Субтитры: отсутствуют
Формат: BDRip, MKV, H.264, AC3
Страна: США
Режиссер: Уэс Андерсон
Жанр: драма, комедия, приключения
Продолжительность: 01:58:44
Год выпуска: 2004

В ролях: Билл Мюррей, Оуэн Уилсон, Кейт Бланшетт, Анжелика Хьюстон, Уиллем Дефо, Джефф Голдблюм, Майкл Гэмбон, Ноа Тейлор, Бад Корт, Сеу Жоржи

Описание: «Я буду мстить», — заявил на пресс-конференции знаменитый океанограф. А мстить он собирался загадочной ягуаровой акуле, съевшей, не поперхнувшись, его лучшего друга и помощника. Собрав разношерстную команду, бесстрашный исследователь устремляется на поиски своего смертельного врага…



Видео: 1024x432 (2.40:1), 23.976 fps, AVC MPEG-4 (x264) High@L4.1 ~3000 Kbps avg, 0.283 bit/pixel
Аудио#1: Русский 48 kHz, AC3, 6 ch ~ 640 Kbps [Профессиональный (двухголосый)(Tycoon)]
Аудио#2: Русский 48 kHz, AC3, 2 ch ~ 192 Kbps [Профессиональный (многоголосый, закадровый)(Видеосервис)]
Аудио#3: Русский 48 kHz, AC3, 6 ch ~ 448 Kbps [Профессиональный (многоголосый, закадровый)(Superbit)]
Аудио#4: Украинский 48 kHz, AC3, 2 ch ~ 192 Kbps [Профессиональный (многоголосый, закадровый)(1+1)]
Аудио#5: Английский 48 kHz, AC3, 6 ch ~ 448 Kbps [Оригинал]
 

MediaInfo

Общее
Уникальный идентификатор : 240516186171295073585323195595564215760 (0xB4F1BB857E89E72B8AA9908288B76DD0)
Полное имя : F:\TREKER\TEMP\the_life_aquatic_with_steve_zissou_[tfile.ru].mkv
Формат : Matroska
Версия формата : Version 2
Размер файла : 4,08 Гбайт
Продолжительность : 1 ч. 58 м.
Общий поток : 4918 Кбит/сек
Название фильма : the_life_aquatic_with_steve_zissou_[tfile.ru]
Дата кодирования : UTC 2014-07-24 08:33:17
Программа кодирования : mkvmerge v4.0.0 ('The Stars were mine') сборка от Jun 6 2010 16:18:42
Библиотека кодирования : libebml v1.0.0 + libmatroska v1.0.0
Attachment : Yes

Видео
Идентификатор : 1
Формат : AVC
Формат/Информация : Advanced Video Codec
Профиль формата : High@L4.1
Параметр CABAC формата : Да
Параметр ReFrames формата : 6 кадров
Идентификатор кодека : V_MPEG4/ISO/AVC
Продолжительность : 1 ч. 58 м.
Битрейт : 3000 Кбит/сек
Ширина : 1024 пикселя
Высота : 432 пикселя
Соотношение сторон : 2,40:1
Режим частоты кадров : Постоянный
Частота кадров : 23,976 кадра/сек
Цветовое пространство : YUV
Субдискретизация насыщенности : 4:2:0
Битовая глубина : 8 бит
Тип развёртки : Прогрессивная
Бит/(Пиксели*Кадры) : 0.283
Размер потока : 2,41 Гбайт (59%)
Заголовок : the_life_aquatic_with_steve_zissou_[tfile.ru]
Библиотека кодирования : x264 core 130 r2273 b3065e6
Настройки программы : cabac=1 / ref=6 / deblock=1:-1:-1 / analyse=0x3:0x133 / me=umh / subme=8 / psy=1 / psy_rd=1.00:0.15 / mixed_ref=1 / me_range=24 / chroma_me=1 / trellis=2 / 8x8dct=1 / cqm=0 / deadzone=21,11 / fast_pskip=0 / chroma_qp_offset=-3 / threads=6 / lookahead_threads=1 / sliced_threads=0 / nr=0 / decimate=1 / interlaced=0 / bluray_compat=0 / constrained_intra=0 / bframes=3 / b_pyramid=2 / b_adapt=2 / b_bias=0 / direct=1 / weightb=1 / open_gop=0 / weightp=2 / keyint=250 / keyint_min=23 / scenecut=40 / intra_refresh=0 / rc_lookahead=50 / rc=abr / mbtree=1 / bitrate=3000 / ratetol=1.0 / qcomp=0.69 / qpmin=0 / qpmax=69 / qpstep=4 / ip_ratio=1.40 / aq=1:1.00
Язык : English
Default : Нет
Forced : Нет

Аудио #1
Идентификатор : 2
Формат : AC-3
Формат/Информация : Audio Coding 3
Расширение режима : CM (complete main)
Параметр Endianness формата : Big
Идентификатор кодека : A_AC3
Продолжительность : 1 ч. 58 м.
Вид битрейта : Постоянный
Битрейт : 640 Кбит/сек
Каналы : 6 каналов
Расположение каналов : Front: L C R, Side: L R, LFE
Частота : 48,0 КГц
Битовая глубина : 16 бит
Метод сжатия : С потерями
Размер потока : 544 Мбайт (13%)
Заголовок : [Профессиональный (двухголосый)(Tycoon)]
Язык : Russian
Default : Нет
Forced : Нет

Аудио #2
Идентификатор : 3
Формат : AC-3
Формат/Информация : Audio Coding 3
Расширение режима : CM (complete main)
Параметр Endianness формата : Big
Идентификатор кодека : A_AC3
Продолжительность : 1 ч. 58 м.
Вид битрейта : Постоянный
Битрейт : 192 Кбит/сек
Каналы : 2 канала
Расположение каналов : Front: L R
Частота : 48,0 КГц
Битовая глубина : 16 бит
Метод сжатия : С потерями
Размер потока : 163 Мбайт (4%)
Заголовок : [Профессиональный (многоголосый, закадровый)(Видеосервис)]
Язык : Russian
Default : Нет
Forced : Нет

Аудио #3
Идентификатор : 4
Формат : AC-3
Формат/Информация : Audio Coding 3
Расширение режима : CM (complete main)
Параметр Endianness формата : Big
Идентификатор кодека : A_AC3
Продолжительность : 1 ч. 58 м.
Вид битрейта : Постоянный
Битрейт : 448 Кбит/сек
Каналы : 6 каналов
Расположение каналов : Front: L C R, Side: L R, LFE
Частота : 48,0 КГц
Битовая глубина : 16 бит
Метод сжатия : С потерями
Размер потока : 381 Мбайт (9%)
Заголовок : [Профессиональный (многоголосый, закадровый)(Superbit)]
Язык : Russian
Default : Нет
Forced : Нет

Аудио #4
Идентификатор : 5
Формат : AC-3
Формат/Информация : Audio Coding 3
Расширение режима : CM (complete main)
Параметр Endianness формата : Big
Идентификатор кодека : A_AC3
Продолжительность : 1 ч. 58 м.
Вид битрейта : Постоянный
Битрейт : 192 Кбит/сек
Каналы : 2 канала
Расположение каналов : Front: L R
Частота : 48,0 КГц
Битовая глубина : 16 бит
Метод сжатия : С потерями
Размер потока : 163 Мбайт (4%)
Заголовок : [Профессиональный (многоголосый, закадровый)(1+1)]
Язык : Ukrainian
Default : Нет
Forced : Нет

Аудио #5
Идентификатор : 6
Формат : AC-3
Формат/Информация : Audio Coding 3
Расширение режима : CM (complete main)
Параметр Endianness формата : Big
Идентификатор кодека : A_AC3
Продолжительность : 1 ч. 58 м.
Вид битрейта : Постоянный
Битрейт : 448 Кбит/сек
Каналы : 6 каналов
Расположение каналов : Front: L C R, Side: L R, LFE
Частота : 48,0 КГц
Битовая глубина : 16 бит
Метод сжатия : С потерями
Размер потока : 381 Мбайт (9%)
Заголовок : [Оригинал]
Язык : English
Default : Нет
Forced : Нет

Меню
00:00:00.000 : en:
00:05:03.427 : en:
00:09:41.330 : en:
00:13:24.010 : en:
00:14:59.398 : en:
00:16:39.206 : en:
00:19:27.082 : en:
00:21:11.435 : en:
00:25:16.806 : en:
00:27:25.352 : en:
00:29:48.619 : en:
00:32:50.718 : en:
00:34:31.234 : en:
00:36:04.661 : en:
00:38:10.662 : en:
00:41:12.260 : en:
00:45:20.091 : en:
00:47:01.359 : en:
00:50:10.590 : en:
00:53:47.305 : en:
00:56:58.956 : en:
01:06:37.409 : en:
01:13:45.295 : en:
01:21:37.182 : en:
01:24:40.283 : en:
01:34:43.676 : en:
01:40:04.539 : en:
01:45:08.385 : en:
01:50:28.537 : en:
01:51:49.786 : en:
 

скриншоты









Статистика торрента
Раздают: 65 Качают: 63 Размер: 4.08GB Скачали: 14
Имя файла: 36282_the_life_aquati.torrent
Похожие торренты
Отзывы пользователей
Добавить отзыв