3.64GB / Гудини (1-4 серии из 4) / Houdini (Ули Эдел) [2014, драма, биография, WEB-DLRip-AVC]

Категория: фильмы » Драмы
рейтинг из 5
  • Добавил: zlidny
  • Дата: 07/09/14, 14:51:00
  • Просмотры: 303
  • Отзывы: 0
?????
Название игры:
Год выхода игры:
Жанр игры: Драмы

Перевод: Профессиональный (многоголосый закадровый) [AlexFilm]
Субтитры: отсутствуют
Формат: WEB-DLRip-AVC, MKV, H.264, AC3
Страна: Канада
Режиссер: Ули Эдел
Жанр: драма, биография
Всего серий: 4 (2 файла по 2 серии в каждом)
Продолжительность: 01:24:08 / 01:07:53
Год выпуска: 2014

В ролях: Эдриан Броуди, Кристен Коннолли, Ивэн Джонс, Том Бенедикт Найт, Кэролайн Болтон, Меган Доддс, Патрик МакКалло, Дьюла Мештерхази

Описание: В основу сюжета легла насыщенная событиями биография Гарри Гудини (Эдриен Броуди) — от бедности до всемирной славы, от цирковых подмостков до лучших концертных залов Европы и Америки. Зрители канала History смогут посетить поражающее воображение закулисье магических шоу и узнать тайны таких опасных трюков, как побег из китайской водной камеры пыток. Создатели проекта не обошли вниманием и другие сферы деятельности великого иллюзиониста — его участие в международном шпионаже и борьбу с псевдоспиритуалистами. При этом самый ловкий и везучий фокусник в истории представлен в новом шоу как обычный человек со своими слабостями и страхами. Гарри Гудини неустанно преодолевал себя и в итоге стал настоящей мировой легендой.




Рип: jeenart

 

Видео и Аудио
1 серия
Видео: 1280 x 720 (16:9), 23.976 fps, AVC (х264) High@L4.1, ~ 2951 Kbps, 0.134 bit/pixel
Аудио #1: Русский 48 kHz, AC3 Dolby Digital, 3/2 (L,C,R,l,r) + LFE ch, ~384 kbps avg [Профессиональный (многоголосый закадровый)]
Аудио #2: Английский 48 kHz, AC3 Dolby Digital, 3/2 (L,C,R,l,r) + LFE ch, ~384 kbps avg [Оригинал]

2 серия
Видео: 1280 x 720 (16:9), 23.976 fps, AVC (х264) High@L4.1, ~ 2300 Kbps, 0.104 bit/pixel
Аудио #1: Русский 48 kHz, AC3 Dolby Digital, 3/2 (L,C,R,l,r) + LFE ch, ~384 kbps avg [Профессиональный (многоголосый закадровый)]
Аудио #2: Английский 48 kHz, AC3 Dolby Digital, 3/2 (L,C,R,l,r) + LFE ch, ~384 kbps avg [Оригинал]
Отчёт MediaInfo 1

General
Unique ID : 191102671188489647131425501553825043199 (0x8FC50922F146B3179AB086F99EAA52FF)
Complete name : F:\Gudini.1-4.2014.WEB-DLRip-AVC.H.264.2,18 Gb.RG.Films\1.Gudini.2014.WEB-DLRip-AVC.H.264.2,18 Gb.RG.Films.mkv
Format : Matroska
Format version : Version 2
File size : 2.19 GiB
Duration : 1h 24mn
Overall bit rate : 3 720 Kbps
Encoded date : UTC 2014-09-06 06:16:06
Writing application : mkvmerge v5.8.0 ('No Sleep / Pillow') built on Sep 2 2012 15:37:04
Writing library : libebml v1.2.3 + libmatroska v1.3.0

Video
ID : 1
Format : AVC
Format/Info : Advanced Video Codec
Format profile : High@L4.1
Format settings, CABAC : Yes
Format settings, ReFrames : 8 frames
Muxing mode : Header stripping
Codec ID : V_MPEG4/ISO/AVC
Duration : 1h 24mn
Bit rate : 2 951 Kbps
Width : 1 280 pixels
Height : 720 pixels
Display aspect ratio : 16:9
Frame rate mode : Constant
Frame rate : 23.976 fps
Color space : YUV
Chroma subsampling : 4:2:0
Bit depth : 8 bits
Scan type : Progressive
Bits/(Pixel*Frame) : 0.134
Stream size : 1.69 GiB (77%)
Writing library : x264 core 125 r2208 d9d2288
Encoding settings : cabac=1 / ref=8 / deblock=1:-1:-1 / analyse=0x3:0x133 / me=umh / subme=11 / psy=1 / psy_rd=1.00:0.10 / mixed_ref=1 / me_range=24 / chroma_me=1 / trellis=2 / 8x8dct=1 / cqm=0 / deadzone=21,11 / fast_pskip=0 / chroma_qp_offset=-3 / threads=12 / lookahead_threads=2 / sliced_threads=0 / nr=0 / decimate=1 / interlaced=0 / bluray_compat=0 / constrained_intra=0 / bframes=3 / b_pyramid=2 / b_adapt=2 / b_bias=0 / direct=3 / weightb=1 / open_gop=0 / weightp=2 / keyint=250 / keyint_min=23 / scenecut=40 / intra_refresh=0 / rc_lookahead=50 / rc=2pass / mbtree=1 / bitrate=2951 / ratetol=1.0 / qcomp=0.60 / qpmin=0 / qpmax=69 / qpstep=4 / cplxblur=20.0 / qblur=0.5 / ip_ratio=1.40 / aq=1:1.00
Default : Yes
Forced : No

Audio #1
ID : 2
Format : AC-3
Format/Info : Audio Coding 3
Mode extension : CM (complete main)
Format settings, Endianness : Big
Muxing mode : Header stripping
Codec ID : A_AC3
Duration : 1h 24mn
Bit rate mode : Constant
Bit rate : 384 Kbps
Channel(s) : 6 channels
Channel positions : Front: L C R, Side: L R, LFE
Sampling rate : 48.0 KHz
Bit depth : 16 bits
Compression mode : Lossy
Stream size : 231 MiB (10%)
Default : Yes
Forced : No

Audio #2
ID : 3
Format : AC-3
Format/Info : Audio Coding 3
Mode extension : CM (complete main)
Format settings, Endianness : Big
Muxing mode : Header stripping
Codec ID : A_AC3
Duration : 1h 24mn
Bit rate mode : Constant
Bit rate : 384 Kbps
Channel(s) : 6 channels
Channel positions : Front: L C R, Side: L R, LFE
Sampling rate : 48.0 KHz
Bit depth : 16 bits
Compression mode : Lossy
Stream size : 231 MiB (10%)
Default : No
Forced : No
Отчёт MediaInfo 2
General
Unique ID : 247544456265891769660368160684911334043 (0xBA3B53FDA33E8619AFFDB3CC0BD7929B)
Complete name : F:\Gudini.1-4.2014.WEB-DLRip-AVC.H.264.RG.Films\2.Gudini.2014.WEB-DLRip-AVC.H.264.1,45 Gb.RG.Films.mkv
Format : Matroska
Format version : Version 2
File size : 1.46 GiB
Duration : 1h 7mn
Overall bit rate : 3 069 Kbps
Encoded date : UTC 2014-09-07 09:27:32
Writing application : mkvmerge v5.8.0 ('No Sleep / Pillow') built on Sep 2 2012 15:37:04
Writing library : libebml v1.2.3 + libmatroska v1.3.0

Video
ID : 1
Format : AVC
Format/Info : Advanced Video Codec
Format profile : High@L4.1
Format settings, CABAC : Yes
Format settings, ReFrames : 8 frames
Muxing mode : Header stripping
Codec ID : V_MPEG4/ISO/AVC
Duration : 1h 7mn
Bit rate : 2 300 Kbps
Width : 1 280 pixels
Height : 720 pixels
Display aspect ratio : 16:9
Frame rate mode : Constant
Frame rate : 23.976 fps
Color space : YUV
Chroma subsampling : 4:2:0
Bit depth : 8 bits
Scan type : Progressive
Bits/(Pixel*Frame) : 0.104
Stream size : 1.06 GiB (73%)
Writing library : x264 core 125 r2208 d9d2288
Encoding settings : cabac=1 / ref=8 / deblock=1:-1:-1 / analyse=0x3:0x133 / me=umh / subme=11 / psy=1 / psy_rd=1.00:0.10 / mixed_ref=1 / me_range=24 / chroma_me=1 / trellis=2 / 8x8dct=1 / cqm=0 / deadzone=21,11 / fast_pskip=0 / chroma_qp_offset=-3 / threads=12 / lookahead_threads=2 / sliced_threads=0 / nr=0 / decimate=1 / interlaced=0 / bluray_compat=0 / constrained_intra=0 / bframes=3 / b_pyramid=2 / b_adapt=2 / b_bias=0 / direct=3 / weightb=1 / open_gop=0 / weightp=2 / keyint=250 / keyint_min=23 / scenecut=40 / intra_refresh=0 / rc_lookahead=50 / rc=2pass / mbtree=1 / bitrate=2300 / ratetol=1.0 / qcomp=0.60 / qpmin=0 / qpmax=69 / qpstep=4 / cplxblur=20.0 / qblur=0.5 / ip_ratio=1.40 / aq=1:1.00
Default : Yes
Forced : No

Audio #1
ID : 2
Format : AC-3
Format/Info : Audio Coding 3
Mode extension : CM (complete main)
Format settings, Endianness : Big
Muxing mode : Header stripping
Codec ID : A_AC3
Duration : 1h 7mn
Bit rate mode : Constant
Bit rate : 384 Kbps
Channel(s) : 6 channels
Channel positions : Front: L C R, Side: L R, LFE
Sampling rate : 48.0 KHz
Bit depth : 16 bits
Compression mode : Lossy
Stream size : 186 MiB (13%)
Default : Yes
Forced : No

Audio #2
ID : 3
Format : AC-3
Format/Info : Audio Coding 3
Mode extension : CM (complete main)
Format settings, Endianness : Big
Muxing mode : Header stripping
Codec ID : A_AC3
Duration : 1h 7mn
Bit rate mode : Constant
Bit rate : 384 Kbps
Channel(s) : 6 channels
Channel positions : Front: L C R, Side: L R, LFE
Sampling rate : 48.0 KHz
Bit depth : 16 bits
Compression mode : Lossy
Stream size : 186 MiB (13%)
Default : No
Forced : No

скриншоты











Статистика торрента
Раздают: 165 Качают: 181 Размер: 3.64GB Скачали: 26
Имя файла: 37494_Gudini.1-4.2014.torrent
Похожие торренты
Отзывы пользователей
Добавить отзыв