30.14GB / Практика (1-40 серии из 40) (Андрей Силкин) [2014, драма, WEB-DLRip-AVC]

Категория: фильмы » Драмы
рейтинг из 5
  • Добавил: zlidny
  • Дата: 08/10/14, 13:59:03
  • Просмотры: 179
  • Отзывы: 0
?????
Название игры:
Год выхода игры:
Жанр игры: Драмы

Перевод: Не требуется, cубтитры: отсутствуют
Формат: WEB-DLRip-AVC, MKV, H.264, AC3
Страна: Россия
Режиссер: Андрей Силкин
Жанр: драма
Всего серий: 40
Продолжительность: 40 х ~ 00:50:00
Год выпуска: 2014

В ролях: Ксения Лаврова-Глинка, Эльдар Лебедев, Пётр Баранчеев, Олег Шкловский, Иван Шибанов, Ольга Чудакова, Елизавета Лотова, Максим Костромыкин, Марина Барсукова, Валерий Новиков, Кира Бузникова, Анна Потебня, Тихон Бузников, Эдуард Айткулов, Юрий Калганов, Евгения Бордзиловская, Эльдар Джанибеков, Алла Фомичева, Николай Лунин (II), Алина Бабак, Наталья Тищенко, Даниил Богданов, Александр Хошабаев, Данил Дмитриев, Денис Баранов, Евгения Каверау, Дарья Хорошилова, Таисия Введенская, Алла Малкова

Описание: В жизни хирурга Евгении Королевой все было хорошо, пока однажды в больницу не прислали из Москвы нового заведующего Илью Соколова. Новый начальник сразу начинает наводить в отделении свои порядки, и Жене непросто найти с ним общий язык. Несмотря на конфликт, Женя и Илья вынуждены работать бок о бок, вместе спасая жизни пациентов. Они сами не замечают, как постепенно враждебность между ними сменяется симпатией, а потом и более глубокими чувствами.



Видео: 1024x576p (16:9), 25,000 fps, AVC MPEG-4 (x264) High@L4.1 ~ 1801 Kbps avg, 0.122 bit/pixel
Аудио: Русский 48 kHz, AC3, 2 ch ~ 192 Kbps
 

MediaInfo

Общее
Уникальный идентификатор : 179753910170835431250563195964715794965 (0x873B5804B5C99045BA0D2621F1D98215)
Полное имя : F:\TREKER\TEMP\praktika_[tfile.ru]\praktika_e01.mkv
Формат : Matroska
Версия формата : Version 2
Размер файла : 736 Мбайт
Продолжительность : 50 м.
Общий поток : 2033 Кбит/сек
Дата кодирования : UTC 2014-10-02 10:15:59
Программа кодирования : mkvmerge v4.0.0 ('The Stars were mine') сборка от Jun 6 2010 16:18:42
Библиотека кодирования : libebml v1.0.0 + libmatroska v1.0.0
Attachements : cover.jpg

Видео
Идентификатор : 1
Формат : AVC
Формат/Информация : Advanced Video Codec
Профиль формата : High@L4.1
Параметр CABAC формата : Да
Параметр ReFrames формата : 7 кадров
Идентификатор кодека : V_MPEG4/ISO/AVC
Продолжительность : 50 м.
Битрейт : 1801 Кбит/сек
Номинальный битрейт : 2000 Кбит/сек
Ширина : 1024 пикселя
Высота : 576 пикселей
Соотношение сторон : 16:9
Режим частоты кадров : Постоянный
Частота кадров : 25,000 кадров/сек
Цветовое пространство : YUV
Субдискретизация насыщенности : 4:2:0
Битовая глубина : 8 бит
Тип развёртки : Прогрессивная
Бит/(Пиксели*Кадры) : 0.122
Размер потока : 651 Мбайт (89%)
Библиотека кодирования : x264 core 130 r2273 b3065e6
Настройки программы : cabac=1 / ref=7 / deblock=1:-1:-1 / analyse=0x3:0x133 / me=umh / subme=10 / psy=1 / psy_rd=1.00:0.15 / mixed_ref=1 / me_range=24 / chroma_me=1 / trellis=2 / 8x8dct=1 / cqm=0 / deadzone=21,11 / fast_pskip=0 / chroma_qp_offset=-3 / threads=6 / lookahead_threads=1 / sliced_threads=0 / nr=0 / decimate=1 / interlaced=0 / bluray_compat=0 / constrained_intra=0 / bframes=3 / b_pyramid=2 / b_adapt=2 / b_bias=0 / direct=1 / weightb=1 / open_gop=0 / weightp=2 / keyint=250 / keyint_min=25 / scenecut=40 / intra_refresh=0 / rc_lookahead=50 / rc=abr / mbtree=1 / bitrate=2000 / ratetol=1.0 / qcomp=0.69 / qpmin=0 / qpmax=69 / qpstep=4 / ip_ratio=1.40 / aq=1:1.00
Default : Нет
Forced : Нет

Аудио
Идентификатор : 2
Формат : AC-3
Формат/Информация : Audio Coding 3
Расширение режима : CM (complete main)
Параметр Endianness формата : Big
Идентификатор кодека : A_AC3
Продолжительность : 50 м.
Вид битрейта : Постоянный
Битрейт : 192 Кбит/сек
Каналы : 2 канала
Расположение каналов : Front: L R
Частота : 48,0 КГц
Битовая глубина : 16 бит
Метод сжатия : С потерями
Размер потока : 69,5 Мбайт (9%)
Default : Нет
Forced : Нет
 

скриншоты









Статистика торрента
Раздают: 100 Качают: 27 Размер: 30.14GB Скачали: 17
Имя файла: 38282_praktika-tfile..torrent
Похожие торренты
Отзывы пользователей
Добавить отзыв