2.91GB / Операция «Арго» [Расширенная версия] / Argo [Extended Cut] (Бен Аффлек) [2012, триллер, драма, история, BDRip-AVC]

Категория: фильмы » Драмы
рейтинг из 5
  • Добавил: zlidny
  • Дата: 20/10/14, 15:26:23
  • Просмотры: 377
  • Отзывы: 0
?????
Название игры:
Год выхода игры:
Жанр игры: Исторические, Триллеры, Драмы

Перевод: Профессиональный (полное дублирование) лицензия, cубтитры: русские, английские
Формат: BDRip-AVC, MKV, H.264, AC3
Страна: США
Режиссер: Бен Аффлек
Жанр: триллер, драма, история
Продолжительность: 02:09:35
Год выпуска: 2012

В ролях: Бен Аффлек, Брайан Крэнстон, Алан Аркин, Джон Гудмен, Виктор Гарбер, Тейт Донован, Клеа Дюваль, Скут МакНэйри, Рори Кокрейн, Кристофер Денхам

Описание: 4 ноября 1979 г. революция в Иране достигает своего апогея, военные штурмуют посольство США в Тегеране и берут в заложники 52 американца. Но в этом хаосе шестерым удается ускользнуть и найти прибежище в доме канадского посла. Понимая, что их обнаружение и, вероятнее всего, убийство — всего лишь вопрос времени, Тони Мендес, специалист ЦРУ по тайному вывозу людей из страны, предлагает рискованный план безопасной эвакуации. План столь невероятен, что такое бывает только в кино



Видео: 1056x440 (2.40:1), 23.976 fps, AVC (H.264), High@L4.1 ~2319 kbps, 0.208 bit/pixel
Аудио #1: Русский: 48 kHz, AC3 Dolby Digital, 3/2 (L,C,R,l,r) + LFE ch, ~448 kbps [Профессиональный (полное дублирование)]
Аудио #2: Английский: 48 kHz, AC3 Dolby Digital, 3/2 (L,C,R,l,r) + LFE ch, ~448 kbps [Оригинал]

Доп. информация: 3 премии "Оскар", 4 номинации. Авторский (одноголосый) Ю. Сербин перевод в местах расширенной версии.
 

Отчет MediaInfo
Общее
Формат : Matroska
Версия формата : Version 4 / Version 2
Размер файла : 2,91 Гбайт
Продолжительность : 2 ч. 9 м.
Общий поток : 3214 Кбит/сек
Название фильма : HELLYWOOD - rip by potroks
Дата кодирования : UTC 2013-12-11 16:02:55
Программа кодирования : mkvmerge v5.9.0 ('On The Loose') built on Dec 15 2012 16:39:58
Библиотека кодирования : libebml v1.3.0 + libmatroska v1.4.0

Видео
Идентификатор : 1
Формат : AVC
Формат/Информация : Advanced Video Codec
Профиль формата : High@L4.1
Параметр CABAC формата : Да
Параметр ReFrames формата : 10 кадров
Идентификатор кодека : V_MPEG4/ISO/AVC
Продолжительность : 2 ч. 9 м.
Битрейт : 2319 Кбит/сек
Ширина : 1056 пикселей
Высота : 440 пикселей
Соотношение сторон : 2,40:1
Режим частоты кадров : Постоянный
Частота кадров : 23,976 кадра/сек
Цветовое пространство : YUV
Субдискретизация насыщенности : 4:2:0
Битовая глубина : 8 бит
Тип развёртки : Прогрессивная
Бит/(Пиксели*Кадры) : 0.208
Размер потока : 2,04 Гбайт (70%)
Заголовок : Argo
Библиотека кодирования : x264 core 130 r2273 b3065e6
Настройки программы : cabac=1 / ref=10 / deblock=1:-3:-3 / analyse=0x3:0x133 / me=umh / subme=11 / psy=1 / psy_rd=1.02:0.00 / mixed_ref=1 / me_range=48 / chroma_me=1 / trellis=2 / 8x8dct=1 / cqm=0 / deadzone=21,11 / fast_pskip=0 / chroma_qp_offset=-2 / threads=9 / lookahead_threads=7 / sliced_threads=0 / nr=0 / decimate=0 / interlaced=0 / bluray_compat=0 / constrained_intra=0 / bframes=11 / b_pyramid=2 / b_adapt=2 / b_bias=0 / direct=3 / weightb=1 / open_gop=0 / weightp=2 / keyint=250 / keyint_min=23 / scenecut=40 / intra_refresh=0 / rc_lookahead=60 / rc=2pass / mbtree=0 / bitrate=2319 / ratetol=1.0 / qcomp=0.70 / qpmin=0 / qpmax=69 / qpstep=4 / cplxblur=20.0 / qblur=0.5 / vbv_maxrate=20000 / vbv_bufsize=25000 / nal_hrd=none / ip_ratio=1.35 / pb_ratio=1.30 / aq=1:0.90
Язык : English
Default : Да
Forced : Нет

Аудио #1
Идентификатор : 2
Формат : AC-3
Формат/Информация : Audio Coding 3
Расширение режима : CM (complete main)
Параметр Endianness формата : Big
Идентификатор кодека : A_AC3
Продолжительность : 2 ч. 9 м.
Вид битрейта : Постоянный
Битрейт : 448 Кбит/сек
Каналы : 6 каналов
Расположение каналов : Front: L C R, Side: L R, LFE
Частота : 48,0 КГц
Битовая глубина : 16 бит
Метод сжатия : С потерями
Размер потока : 415 Мбайт (14%)
Заголовок : Dub | DD 5.1 @ 448 kbps + вставки Ю.Сербина
Язык : Russian
Default : Да
Forced : Да

Аудио #2
Идентификатор : 3
Формат : AC-3
Формат/Информация : Audio Coding 3
Расширение режима : CM (complete main)
Параметр Endianness формата : Big
Идентификатор кодека : A_AC3
Продолжительность : 2 ч. 9 м.
Вид битрейта : Постоянный
Битрейт : 448 Кбит/сек
Каналы : 6 каналов
Расположение каналов : Front: L C R, Side: L R, LFE
Частота : 48,0 КГц
Битовая глубина : 16 бит
Метод сжатия : С потерями
Размер потока : 415 Мбайт (14%)
Заголовок : Original | DD 5.1 @ 448 kbps
Язык : English
Default : Нет
Forced : Нет

Текст #1
Идентификатор : 4
Формат : UTF-8
Идентификатор кодека : S_TEXT/UTF8
Идентификатор кодека/Информация : UTF-8 Plain Text
Язык : Russian
Default : Нет
Forced : Нет

Текст #2
Идентификатор : 5
Формат : UTF-8
Идентификатор кодека : S_TEXT/UTF8
Идентификатор кодека/Информация : UTF-8 Plain Text
Заголовок : Forced
Язык : English
Default : Нет
Forced : Нет

Текст #3
Идентификатор : 6
Формат : UTF-8
Идентификатор кодека : S_TEXT/UTF8
Идентификатор кодека/Информация : UTF-8 Plain Text
Язык : English
Default : Нет
Forced : Нет

Меню
00:00:00.000 : en:(01)00:00:00:000
00:12:39.717 : en:(02)00:12:39:717
00:22:15.459 : en:(03)00:22:15:459
00:33:33.344 : en:(04)00:33:33:344
00:50:10.298 : en:(05)00:50:10:298
00:58:35.261 : en:(06)00:58:35:261
01:08:33.776 : en:(07)01:08:33:776
01:17:43.241 : en:(08)01:17:43:241
01:28:20.545 : en:(09)01:28:20:545
01:39:18.160 : en:(10)01:39:18:160
01:48:04.894 : en:(11)01:48:04:894
02:00:48.115 : en:(12)02:00:48:115
02:09:35.392 : en:(13)02:09:35:392

Статистика торрента
Раздают: 384 Качают: 143 Размер: 2.91GB Скачали: 20
Имя файла: 38700_Operatcyia.Argo.torrent
Похожие торренты
Отзывы пользователей
Добавить отзыв