2.91GB / Ной / Noah (Даррен Аронофски) [2014, драма, приключения, фэнтези, BDRip-AVC]

Категория: фильмы » Драмы
рейтинг из 5
  • Добавил: zlidny
  • Дата: 26/07/14, 08:53:09
  • Просмотры: 210
  • Отзывы: 0
?????
Название игры:
Год выхода игры:
Жанр игры: Приключения, Фентези, Драмы

Перевод: Профессиональный (полное дублирование) лицензия, субтитры: русские, украинские, английские
Формат: BDRip-AVC, MKV, H.264, AC3
Страна: США
Режиссер: Даррен Аронофски
Жанр: драма, приключения, фэнтези
Продолжительность: 02:17:53
Год выпуска: 2014

В ролях: Рассел Кроу, Дженнифер Коннелли, Рэй Уинстон, Энтони Хопкинс, Эмма Уотсон, Логан Лерман, Дуглас Бут, Ник Нолти, Марк Марголис, Кевин Дюран

Описание: История отца, воина и спасителя Человечества и всего живого на Земле.



Видео: 1008x546 (16:9), 23.976 fps, AVC (H.264), High@L4.1 ~2129 kbps, 0.161 bit/pixel
Аудио #1: Русский: 48 kHz, AC3 Dolby Digital, 3/2 (L,C,R,l,r) + LFE ch, 448 kbps [Профессиональный (полное дублирование)]
Аудио #2: Английский: 48 kHz, AC3 Dolby Digital, 3/2 (L,C,R,l,r) + LFE ch, ~448 kbps [Оригинал]
 

Отчет MediaInfo
Общее
Уникальный идентификатор : 171612463130982738478776307145254768643 (0x811B5BB034142DE2B6247BD1C97A1003)
Полное имя : D:\Noy.2014.DUAL.BDRip.x264.-HELLYWOOD.mkv
Формат : Matroska
Размер файла : 2,91 Гбайт
Продолжительность : 2 ч. 17 м.
Общий поток : 3025 Кбит/сек
Название фильма : Noah (2014) - HELLYWOOD
Дата кодирования : UTC 2014-07-25 15:32:23
Программа кодирования : mkvmerge v5.9.0 ('On The Loose') built on Dec 15 2012 16:39:58
Библиотека кодирования : libebml v1.3.0 + libmatroska v1.4.0

Видео
Идентификатор : 1
Формат : AVC
Формат/Информация : Advanced Video Codec
Профиль формата : High@L4.1
Параметр CABAC формата : Да
Параметр ReFrames формата : 11 кадров
Идентификатор кодека : V_MPEG4/ISO/AVC
Продолжительность : 2 ч. 17 м.
Битрейт : 2129 Кбит/сек
Ширина : 1008 пикс.
Высота : 546 пикс.
Соотношение сторон : 16:9
Частота кадров : 23,976 кадр/сек
Цветовое пространство : YUV
Подвыборка цветности : 4:2:0
Битовая глубина : 8 бит
Тип развёртки : Прогрессивная
Бит/(Пиксели*Кадры) : 0.161
Размер потока : 1,99 Гбайт (68%)
Заголовок : potroks
Библиотека кодирования : x264 core 130 r2273 b3065e6
Настройки программы : cabac=1 / ref=11 / deblock=1:-2:-2 / analyse=0x3:0x133 / me=umh / subme=11 / psy=1 / psy_rd=1.01:0.02 / mixed_ref=1 / me_range=48 / chroma_me=1 / trellis=2 / 8x8dct=1 / cqm=0 / deadzone=21,11 / fast_pskip=0 / chroma_qp_offset=-3 / threads=9 / lookahead_threads=6 / sliced_threads=0 / nr=0 / decimate=0 / interlaced=0 / bluray_compat=0 / constrained_intra=0 / bframes=12 / b_pyramid=2 / b_adapt=2 / b_bias=0 / direct=3 / weightb=1 / open_gop=0 / weightp=2 / keyint=250 / keyint_min=23 / scenecut=40 / intra_refresh=0 / rc_lookahead=60 / rc=2pass / mbtree=0 / bitrate=2129 / ratetol=1.0 / qcomp=0.70 / qpmin=0 / qpmax=69 / qpstep=4 / cplxblur=20.0 / qblur=0.5 / vbv_maxrate=50000 / vbv_bufsize=62500 / nal_hrd=none / ip_ratio=1.35 / pb_ratio=1.25 / aq=1:0.80
Язык : English

Аудио #1
Идентификатор : 2
Формат : AC-3
Формат/Информация : Audio Coding 3
Расширение режима : CM (complete main)
Идентификатор кодека : A_AC3
Продолжительность : 2 ч. 17 м.
Вид битрейта : Постоянный
Битрейт : 448 Кбит/сек
Каналы : 6 каналов
Расположение каналов : Front: L C R, Side: L R, LFE
Частота : 48,0 КГц
Битовая глубина : 16 бит
Метод сжатия : С потерями
Размер потока : 442 Мбайт (15%)
Заголовок : Dub | DD 5.1 @ 448 kbps - BD CEE
Язык : Russian

Аудио #2
Идентификатор : 3
Формат : AC-3
Формат/Информация : Audio Coding 3
Расширение режима : CM (complete main)
Идентификатор кодека : A_AC3
Продолжительность : 2 ч. 17 м.
Вид битрейта : Постоянный
Битрейт : 448 Кбит/сек
Каналы : 6 каналов
Расположение каналов : Front: L C R, Side: L R, LFE
Частота : 48,0 КГц
Битовая глубина : 16 бит
Метод сжатия : С потерями
Размер потока : 442 Мбайт (15%)
Заголовок : Original | DD 5.1 @ 448 kbps
Язык : English

Текст #1
Идентификатор : 4
Формат : UTF-8
Идентификатор кодека : S_TEXT/UTF8
Идентификатор кодека/Информация : UTF-8 Plain Text
Заголовок : форс.
Язык : Russian

Текст #2
Идентификатор : 5
Формат : UTF-8
Идентификатор кодека : S_TEXT/UTF8
Идентификатор кодека/Информация : UTF-8 Plain Text
Заголовок : iTunes
Язык : Russian

Текст #3
Идентификатор : 6
Формат : UTF-8
Идентификатор кодека : S_TEXT/UTF8
Идентификатор кодека/Информация : UTF-8 Plain Text
Заголовок : Notabenoid
Язык : Russian

Текст #4
Идентификатор : 7
Формат : UTF-8
Идентификатор кодека : S_TEXT/UTF8
Идентификатор кодека/Информация : UTF-8 Plain Text
Заголовок : iTunes
Язык : Ukrainian

Текст #5
Идентификатор : 8
Формат : UTF-8
Идентификатор кодека : S_TEXT/UTF8
Идентификатор кодека/Информация : UTF-8 Plain Text
Заголовок : Full
Язык : English

Текст #6
Идентификатор : 9
Формат : UTF-8
Идентификатор кодека : S_TEXT/UTF8
Идентификатор кодека/Информация : UTF-8 Plain Text
Заголовок : SDH
Язык : English

Текст #7
Идентификатор : 10
Формат : UTF-8
Идентификатор кодека : S_TEXT/UTF8
Идентификатор кодека/Информация : UTF-8 Plain Text
Заголовок : SDH-Colored
Язык : English

Меню
00:00:00.000 : en:(01)00:00:00:000
00:04:48.955 : en:(02)00:04:48:955
00:08:37.266 : en:(03)00:08:37:266
00:12:23.033 : en:(04)00:12:23:033
00:18:43.080 : en:(05)00:18:43:080
00:23:25.487 : en:(06)00:23:25:487
00:32:06.424 : en:(07)00:32:06:424
00:37:27.203 : en:(08)00:37:27:203
00:42:50.734 : en:(09)00:42:50:734
00:54:35.647 : en:(10)00:54:35:647
01:01:14.962 : en:(11)01:01:14:962
01:03:28.596 : en:(12)01:03:28:596
01:09:33.794 : en:(13)01:09:33:794
01:19:18.336 : en:(14)01:19:18:336
01:21:56.536 : en:(15)01:21:56:536
01:29:12.347 : en:(16)01:29:12:347
01:34:02.053 : en:(17)01:34:02:053
01:40:27.354 : en:(18)01:40:27:354
01:49:23.098 : en:(19)01:49:23:098
01:55:57.825 : en:(20)01:55:57:825
02:00:37.230 : en:(21)02:00:37:230
02:11:32.676 : en:(22)02:11:32:676
02:17:52.889 : en:(23)02:17:52:889

Статистика торрента
Раздают: 345 Качают: 192 Размер: 2.91GB Скачали: 16
Имя файла: 36301_Noy.2014.DUAL.B.torrent
Похожие торренты
Отзывы пользователей
Добавить отзыв