2.69GB / Фаталисты (1-4 серии из 4) (Олег Фомин) [2001, драма, комедия, DVDRip]

Категория: фильмы » Драмы
рейтинг из 5
  • Добавил: zlidny
  • Дата: 20/08/14, 18:47:55
  • Просмотры: 254
  • Отзывы: 0
?????
Название игры:
Год выхода игры:
Жанр игры: Комедии, Драмы

Формат: DVDRip, AVI, XviD, AC3
Режиссер: Олег Фомин
Жанр: драма, комедия
Продолжительность: 4 x ~ 00:45:00
Год выпуска: 2001
В ролях: Александр Абдулов, Ирина Розанова, Афанасий Кочетков, Юлия Рутберг, Владимир Виноградов, Евгений Ермаков, Игорь Зайцев, Алексей Салпанов, Мария Аниканова, Анастасия Кяро, Владимир Юматов, Владимир Долинский, Игорь Юраш, Майкл Гладков, Александр Тютин, Владимир Белоусов, Александр Хван, Андрей Гриневич, Олег Мошкаркин, Андрей Анкудинов, Михаил Горевой, Андрей Ростоцкий, Михаил Солодко, Дмитрий Скворцов, Глеб Иванов, Владимир Стуканов, Александр Гавриков, Владимир Завикторин, Валерий Лисин, Игорь Кирсанов, Александр Боев, Павел Абдалов, Павел Деревянко, Екатерина Жаркова, Денис Матросов, Альберт Афонин, Сергей Иванов
Описание:
Бывший агент КГБ, иностранец, Клиффорд Линдс-Васильев, выходит "в тираж". Органов, которые его вербовали, больше не существует; государства, на которое он работал, - тоже нет; американского гражданства его лишили, а казенную квартиру в Москве требуют немедленно освободить. Примерно та же участь и у бывшего "постельного" агента КГБ - Клеопатры, которую 15 лет назад "сдернули" с филфака МГУ для работы осведомителем. Ей отказывают в восстановлении в университете, ее грантов, чьи подписи стоят на документах, также больше нет в природе. Из-за полной невостребованности они ввязываются в авантюру: необходимо добыть секретную картотеку завербованных агентов. За ними, соответственно, охотятся и ЦРУ, и КГБ. И, естественно, на фоне динамичного триллера-детектива - история взаимоотношений двух главных героев и большая романтическая любовь...



Видео: 704x400 (16:9), 25 fps, XviD ~1845 kbps avg, 0.262 bit/pixel
Аудио: 48 kHz, АС3, 2 ch, Front: L R ~160.00 kbps avg
Тех. данные файлов идентичны.
 

MI
Общее
Полное имя : C:\Users\Admin\Downloads\Fatalisti.(1-4.s.is.4).2001.XviD.DVDRi_TV\Fatalisti.(1.s.is.4).2001.XviD.DVDRi_avi
Формат : AVI
Формат/Информация : Audio Video Interleave
Размер файла : 614 Мбайт
Продолжительность : 42 м.
Общий поток : 2015 Кбит/сек
Программа кодирования : VirtualDubMod 1.5.10.2 (build 2540/release)
Библиотека кодирования : VirtualDubMod build 2540/release

Видео
Идентификатор : 0
Формат : MPEG-4 Visual
Профиль формата : Advanced Simple@L5
Параметр BVOP формата : 1
Параметр QPel формата : Нет
Параметр GMC формата : Без точки перехода
Параметр матрицы формата : Выборочная
Идентификатор кодека : XVID
Идентификатор кодека/Подсказка : XviD
Продолжительность : 42 м.
Битрейт : 1845 Кбит/сек
Ширина : 704 пикселя
Высота : 400 пикселей
Соотношение сторон : 16:9
Частота кадров : 25,000 кадров/сек
Цветовое пространство : YUV
Субдискретизация насыщенности : 4:2:0
Битовая глубина : 8 бит
Тип развёртки : Прогрессивная
Метод сжатия : С потерями
Бит/(Пиксели*Кадры) : 0.262
Размер потока : 562 Мбайт (92%)
Библиотека кодирования : XviD 1.2.1 (UTC 2008-12-04)

Аудио
Идентификатор : 1
Формат : AC-3
Формат/Информация : Audio Coding 3
Расширение режима : CM (complete main)
Параметр Endianness формата : Big
Идентификатор кодека : 2000
Продолжительность : 42 м.
Вид битрейта : Постоянный
Битрейт : 160 Кбит/сек
Каналы : 2 канала
Расположение каналов : Front: L R
Частота : 48,0 КГц
Битовая глубина : 16 бит
Метод сжатия : С потерями
Размер потока : 48,7 Мбайт (8%)
Выравнивание : Разделение по промежуткам
Продолжительность промежутка : 40 мс. (1,00 видеокадр)
Время предзагрузки промежутка : 500 мс.
Язык : Russian

скриншоты







Статистика торрента
Раздают: 175 Качают: 50 Размер: 2.69GB Скачали: 18
Имя файла: 37106_fatalisty-tfile.torrent
Похожие торренты
Отзывы пользователей
Добавить отзыв