2.65GB / Солнечный удар (Никита Михалков) [2014, драма, HDTVRip]

Категория: фильмы » Драмы
рейтинг из 5
  • Добавил: zlidny
  • Дата: 06/11/14, 17:58:32
  • Просмотры: 388
  • Отзывы: 0
?????
Название игры:
Год выхода игры:
Жанр игры: Драмы

Формат: HDTVRip, AVI, H.264, AC3
Режиссер: Никита Михалков
Жанр: драма
Продолжительность: 02:52:59
Год выпуска: 2014
В ролях: Мартиньш Калита, Виктория Соловьёва (II), Анастасия Имамова, Сергей Серов, Ксения Попович, Милош Бикович, Андрей Попович, Александр Устюгов, Александр Обласов, Александр Борисов (II), Максим Битюков, Илья Кипоренко, Сергей Бачурский, Кристина Кириллова, Алексей Дякин, Нина Сизова, Виталий Кищенко, Мириам Сехон, Дарья Белоусова (II), Сергей Карпов (IV)
Описание:
История любви поручика и прекрасной незнакомки, обрушившейся на них как солнечный удар. Познакомившись на пароходе, герои сходят на берег в маленьком уездном городке Павлино, где проводят в гостинице одну единственную ночь вместе. Наутро женщина исчезает - её дома ждут супруг и дочка. А поручик спустя годы не может забыть потрясшее его любовное приключение...



Видео: 720x304 (2.35:1), 25 fps, XviD MPEG-4 ~2000 kbps avg, 0.365 bit/pixel
Аудио: 48 kHz, АС3, 2 ch, Front: L R ~192.00 kbps avg
 

MI
Общее
Полное имя : C:\Users\Admin\Downloads\Solnechnyy.udar.2014.HDTVRip.Files-x.avi
Формат : AVI
Формат/Информация : Audio Video Interleave
Размер файла : 2,65 Гбайт
Продолжительность : 2 ч. 52 м.
Общий поток : 2201 Кбит/сек
Программа кодирования : VirtualDubMod 1.5.10.3 | www.virtualdub-fr.org || (build 2550/release)
Библиотека кодирования : VirtualDub build 32842/release

Видео
Идентификатор : 0
Формат : MPEG-4 Visual
Профиль формата : Advanced Simple@L5
Параметр BVOP формата : 1
Параметр QPel формата : Нет
Параметр GMC формата : Без точки перехода
Параметр матрицы формата : Выборочная
Идентификатор кодека : XVID
Идентификатор кодека/Подсказка : XviD
Продолжительность : 2 ч. 52 м.
Битрейт : 2000 Кбит/сек
Ширина : 720 пикселей
Высота : 304 пикселя
Соотношение сторон : 2,35:1
Частота кадров : 25,000 кадров/сек
Цветовое пространство : YUV
Субдискретизация насыщенности : 4:2:0
Битовая глубина : 8 бит
Тип развёртки : Прогрессивная
Метод сжатия : С потерями
Бит/(Пиксели*Кадры) : 0.365
Размер потока : 2,41 Гбайт (91%)
Библиотека кодирования : XviD 73

Аудио
Идентификатор : 1
Формат : AC-3
Формат/Информация : Audio Coding 3
Расширение режима : CM (complete main)
Параметр Endianness формата : Big
Идентификатор кодека : 2000
Продолжительность : 2 ч. 52 м.
Вид битрейта : Постоянный
Битрейт : 192 Кбит/сек
Каналы : 2 канала
Расположение каналов : Front: L R
Частота : 48,0 КГц
Битовая глубина : 16 бит
Метод сжатия : С потерями
Размер потока : 237 Мбайт (9%)
Выравнивание : Разделение по промежуткам
Продолжительность промежутка : 40 мс. (1,00 видеокадр)
Время предзагрузки промежутка : 500 мс.

скриншоты






Статистика торрента
Раздают: 173 Качают: 157 Размер: 2.65GB Скачали: 34
Имя файла: 39401_Solnechnyy.udar.torrent
Похожие торренты
Отзывы пользователей
Добавить отзыв