2.53GB / Прости меня, мама (Бандит) (1-4 серии из 4) (Егор Грамматиков) [2014, драма, WEB-DLRip-AVC]

Категория: фильмы » Драмы
рейтинг из 5
  • Добавил: zlidny
  • Дата: 25/07/14, 19:14:10
  • Просмотры: 186
  • Отзывы: 0
?????
Название игры:
Год выхода игры:
Жанр игры: Драмы

Формат: WEB-DLRip-AVC, MKV, H.264, AC3
Режиссер: Егор Грамматиков
Жанр: драма
Продолжительность: 4 х ~ 00:45:00
Год выпуска: 2014
В ролях: Владимир Яглыч, Евгения Туркова, Александра Мареева, Сергей Селин, Алексей Ильин, Кирилл Нагиев, Елена Лотова, Наталья Рычкова, Вячеслав Шихалеев, Олег Соколдынский, Антон Ксенев, Екатерина Александрушкина, Роман Агеев, Николай Точилин, Илья Ильин, Борис Миронов, Юлия Бурова, Денис Давыдов, Василий Щипицын, Дмитрий Медведев, Юрий Тарасов, Сергей Барабаш, Анна Казючиц, Юрий Яфаев, Антон Момот, Денис Старков, Елена Муравьёва, Елена Махова, Анна Ходюш, Алексей Франдетти, Александр Усердин
Описание:
Действие сериала начинается в сложный для России исторический период — начало 90-х. Главного героя картины осуждают за несовершенное преступление, в наши дни он выходит из тюрьмы и пытается доказать, что был осужден несправедливо…



Видео: 1024x576 (16:9), 25 fps, AVC (х.264) High@L4.1 ~1801 kbps avg, 0.122 bit/pixel
Аудио: 48 kHz, АС3, 2 ch, Front: L R ~256.00 kbps avg
Тех. данные файлов идентичны.
 

MI
Общее
Полное имя : C:\Users\Admin\Downloads\Prosti.menia.mama.2014.WEB-DLRip.AVC.ExKinoRay\Prosti.menia.mama.(01.seriya).2014.WEB-DLRip.AVC.ExKinoRay.mkv
Формат : Matroska
Версия формата : Version 2
Размер файла : 644 Мбайт
Продолжительность : 43 м.
Общий поток : 2058 Кбит/сек
Дата кодирования : UTC 2014-07-24 23:56:30
Программа кодирования : mkvmerge v4.9.1 ('Ich will') built on Jul 11 2011 23:53:15
Библиотека кодирования : libebml v1.2.1 + libmatroska v1.1.1

Видео
Идентификатор : 1
Формат : AVC
Формат/Информация : Advanced Video Codec
Профиль формата : High@L4.1
Параметр CABAC формата : Да
Параметр ReFrames формата : 8 кадров
Идентификатор кодека : V_MPEG4/ISO/AVC
Продолжительность : 43 м.
Битрейт : 1801 Кбит/сек
Ширина : 1024 пикселя
Высота : 576 пикселей
Соотношение сторон : 16:9
Режим частоты кадров : Постоянный
Частота кадров : 25,000 кадров/сек
Цветовое пространство : YUV
Субдискретизация насыщенности : 4:2:0
Битовая глубина : 8 бит
Тип развёртки : Прогрессивная
Бит/(Пиксели*Кадры) : 0.122
Размер потока : 551 Мбайт (86%)
Библиотека кодирования : x264 core 116 r2044 392e762
Настройки программы : cabac=1 / ref=8 / deblock=1:-2:-2 / analyse=0x3:0x113 / me=umh / subme=9 / psy=1 / psy_rd=1.00:0.20 / mixed_ref=1 / me_range=32 / chroma_me=1 / trellis=2 / 8x8dct=1 / cqm=0 / deadzone=21,11 / fast_pskip=0 / chroma_qp_offset=-3 / threads=12 / sliced_threads=0 / nr=0 / decimate=0 / interlaced=0 / bluray_compat=0 / constrained_intra=0 / bframes=9 / b_pyramid=2 / b_adapt=2 / b_bias=0 / direct=3 / weightb=1 / open_gop=0 / weightp=2 / keyint=250 / keyint_min=25 / scenecut=40 / intra_refresh=0 / rc=2pass / mbtree=0 / bitrate=1801 / ratetol=1.0 / qcomp=0.60 / qpmin=0 / qpmax=69 / qpstep=4 / cplxblur=20.0 / qblur=0.5 / ip_ratio=1.40 / pb_ratio=1.30 / aq=1:1.00
Default : Да
Forced : Нет

Аудио
Идентификатор : 2
Формат : AC-3
Формат/Информация : Audio Coding 3
Расширение режима : CM (complete main)
Параметр Endianness формата : Big
Идентификатор кодека : A_AC3
Продолжительность : 43 м.
Вид битрейта : Постоянный
Битрейт : 256 Кбит/сек
Каналы : 2 канала
Расположение каналов : Front: L R
Частота : 48,0 КГц
Битовая глубина : 16 бит
Метод сжатия : С потерями
Размер потока : 80,2 Мбайт (12%)
Default : Да
Forced : Нет

скриншоты





Статистика торрента
Раздают: 266 Качают: 35 Размер: 2.53GB Скачали: 10
Имя файла: 36285_prosti-tfile.ru.torrent
Похожие торренты
Отзывы пользователей
Добавить отзыв