2.41GB / Желтое море / The Yellow Sea / Hwanghae (На Хон Чжин) [2010 , триллер, драма, криминал, HDRip-AVC]

Категория: фильмы » Драмы
рейтинг из 5
  • Добавил: zlidny
  • Дата: 29/07/14, 11:53:43
  • Просмотры: 291
  • Отзывы: 0
?????
Название игры:
Год выхода игры:
Жанр игры: Криминал, Триллеры, Драмы

Перевод: Авторский [Ю.Сербин], субтитры: отсутствуют
Формат: HDRip-AVC, MKV, H.264, AC3
Страна: Корея Южная, США, Гонконг
Режиссер: На Хон Чжин
Жанр: триллер, драма, криминал
Продолжительность: 02:20:35
Год выпуска: 2010
В ролях: Ха Чун Ву, Ким Юн Сок, Чо Сон Ха, Ли Чул Мин

Описание: Граница России, Китая и Северной Кореи. Обремененный долгами и живущий на грани нищеты мужчина соглашается стать наемным убийцей. Это — его последний шанс, чтобы обеспечить семью. Он мало знает о своей предполагаемой жертве. Но и представить себе не может, в какое хитросплетение обстоятельств скоро попадет…



Видео: 1024x436 (2,35:1), 23,976 fps, AVC (х264), High@L4.1, ~ 2000 kbps avg, 0.187 bit/pixel
Аудио: 48.0 kHz, AC3, ( Front: L C R, Side: L R, LFE) , 6 ch ~448Kbps avg

Релиз:
 

MediaInfo
Общее
Уникальный идентификатор : 250340651148325259753041993456249493106 (0xBC55DB0ADB137FD693ACF4EF50A85672)
Полное имя : B:\Zheltoe.more.2010.x264.HDRip.(AVC).ExKinoRay.mkv
Формат : Matroska
Версия формата : Version 2
Размер файла : 2,41 Гбайт
Продолжительность : 2 ч. 20 м.
Общий поток : 2450 Кбит/сек
Дата кодирования : UTC 2012-05-04 22:19:29
Программа кодирования : mkvmerge v4.0.0 ('The Stars were mine') сборка от Jun 6 2010 16:18:42
Библиотека кодирования : libebml v1.0.0 + libmatroska v1.0.0

Видео
Идентификатор : 1
Формат : AVC
Формат/Информация : Advanced Video Codec
Профиль формата : High@L4.1
Параметр CABAC формата : Да
Параметр ReFrames формата : 4 кадра
Идентификатор кодека : V_MPEG4/ISO/AVC
Продолжительность : 2 ч. 20 м.
Битрейт : 2000 Кбит/сек
Ширина : 1024 пикселя
Высота : 436 пикселей
Соотношение сторон : 2,35:1
Режим частоты кадров : Постоянный
Частота кадров : 23,976 кадра/сек
Цветовое пространство : YUV
Субдискретизация насыщенности : 4:2:0
Битовая глубина : 8 бит
Тип развёртки : Прогрессивная
Бит/(Пиксели*Кадры) : 0.187
Размер потока : 1,92 Гбайт (80%)
Заголовок : Rip by Enigma-Vladislav71
Библиотека кодирования : x264 core 116 r2074 2641b9e
Настройки программы : cabac=1 / ref=3 / deblock=1:-2:-1 / analyse=0x3:0x133 / me=umh / subme=7 / psy=1 / psy_rd=1.00:0.00 / mixed_ref=1 / me_range=16 / chroma_me=1 / trellis=2 / 8x8dct=1 / cqm=0 / deadzone=21,11 / fast_pskip=0 / chroma_qp_offset=-2 / threads=3 / sliced_threads=0 / nr=0 / decimate=1 / interlaced=0 / bluray_compat=0 / constrained_intra=0 / bframes=3 / b_pyramid=2 / b_adapt=2 / b_bias=0 / direct=3 / weightb=1 / open_gop=0 / weightp=2 / keyint=250 / keyint_min=23 / scenecut=40 / intra_refresh=0 / rc=2pass / mbtree=0 / bitrate=2000 / ratetol=1.0 / qcomp=0.60 / qpmin=10 / qpmax=51 / qpstep=4 / cplxblur=20.0 / qblur=0.5 / ip_ratio=1.40 / pb_ratio=1.30 / aq=2:1.00
Язык : English
Default : Нет
Forced : Нет

Аудио
Идентификатор : 2
Формат : AC-3
Формат/Информация : Audio Coding 3
Расширение режима : CM (complete main)
Параметр Endianness формата : Big
Идентификатор кодека : A_AC3
Продолжительность : 2 ч. 20 м.
Вид битрейта : Постоянный
Битрейт : 448 Кбит/сек
Каналы : 6 каналов
Расположение каналов : Front: L C R, Side: L R, LFE
Частота : 48,0 КГц
Битовая глубина : 16 бит
Метод сжатия : С потерями
Размер потока : 450 Мбайт (18%)
Язык : Russian
Default : Да
Forced : Нет

Текст #1
Идентификатор : 3
Формат : UTF-8
Идентификатор кодека : S_TEXT/UTF8
Идентификатор кодека/Информация : UTF-8 Plain Text
Язык : Russian
Default : Да
Forced : Нет

Текст #2
Идентификатор : 4
Формат : UTF-8
Идентификатор кодека : S_TEXT/UTF8
Идентификатор кодека/Информация : UTF-8 Plain Text
Язык : English
Default : Нет
Forced : Нет

Статистика торрента
Раздают: 87 Качают: 54 Размер: 2.41GB Скачали: 16
Имя файла: 36372_Zheltoe.more.20.torrent
Похожие торренты
Отзывы пользователей
Добавить отзыв