2.25GB / Багровый лепесток и белый / The Crimson Petal and the White [S01] (2011) HDTVRip | P

Категория: фильмы » Драмы
рейтинг из 5
  • Добавил: zlidny
  • Дата: 31/07/14, 11:28:23
  • Просмотры: 156
  • Отзывы: 0
?????
Название игры:
Год выхода игры:
Жанр игры: Мелодрамы, Драмы

Название: Багровый лепесток и белый
Оригинальное название: The Crimson Petal and the White
Год выхода: 2011
Жанр: драма, мелодрама
Режиссер: Марк Манден
В ролях: Ромола Гарай, Крис О’Дауд, Аманда Хейл, Ширли Хендерсон, Кэти Лайонс, Элинор Йэтс, Элизабет Беррингтон, Ричард Э. Грант, Джеймс Уилсон, Клер Луиз Коннолли

О фильме:
Несентиментальная история девятнадцатилетней проститутки по имени Конфетка, события которой разворачиваются в викторианском Лондоне. В центре этой «мелодрамы без мелодрам» — стремление юной женщины не быть товаром, вырвать свое тело и душу из трущоб. Мы близко познакомимся с наследником процветающего парфюмерного дела Уильямом Рэкхэмом и его невинной, хрупкого душевного устройства женой Агнес, с его «спрятанной» дочерью Софи и набожным братом Генри, мучимым конфликтом между мирским и безгреховным. Мы встретимся также с эрудированными распутниками, слугами себе на уме, беспризорниками, уличными девками, реформаторами из общества спасения.


Страна: Великобритания
Студия: BBC Television Centre, Cité-Amérique, Origin Pictures, Lip Sync Post, Rushes Post Production Ltd.
Продолжительность: ~00:59:00 серия
Перевод: Профессиональный (многоголосый закадровый) [ТК Домашний]

Файл
Кодек: XviD / AC3
Качество: HDTVRip
Видео: MPEG4, XviD, 624x352 (16:9), 25.000 fps, 1 161 Kbps (0.211 bit/pixel)
Звук: AC-3, 48.0 KHz, 2 ch, 192 Kbps, CBR
 

Скриншоты
Screenshots
MediaInfo
General
Complete name : /Багровый лепесток и белый/Багровый лепесток и белый 1с.avi
Format : AVI
Format/Info : Audio Video Interleave
File size : 575 MiB
Duration : 59mn 2s
Overall bit rate : 1 363 Kbps
Writing application : VirtualDubMod 1.5.10.2 (build 2540/release)
Writing library : VirtualDubMod build 2540/release

Video
ID : 0
Format : MPEG-4 Visual
Format profile : Advanced Simple@L5
Format settings, BVOP : 2
Format settings, QPel : No
Format settings, GMC : No warppoints
Format settings, Matrix : Default (H.263)
Codec ID : XVID
Codec ID/Hint : XviD
Duration : 59mn 2s
Bit rate : 1 161 Kbps
Width : 624 pixels
Height : 352 pixels
Display aspect ratio : 16:9
Frame rate : 25.000 fps
Color space : YUV
Chroma subsampling : 4:2:0
Bit depth : 8 bits
Scan type : Progressive
Compression mode : Lossy
Bits/(Pixel*Frame) : 0.211
Stream size : 490 MiB (85%)
Writing library : XviD 1.2.1 (UTC 2008-12-04)

Audio
ID : 1
Format : AC-3
Format/Info : Audio Coding 3
Mode extension : CM (complete main)
Format settings, Endianness : Big
Codec ID : 2000
Duration : 59mn 2s
Bit rate mode : Constant
Bit rate : 192 Kbps
Channel(s) : 2 channels
Channel positions : Front: L R
Sampling rate : 48.0 KHz
Bit depth : 16 bits
Compression mode : Lossy
Stream size : 81.1 MiB (14%)
Alignment : Split accross interleaves
Interleave, duration : 40 ms (1.00 video frame)
Interleave, preload duration : 500 ms

Статистика торрента
Раздают: 221 Качают: 184 Размер: 2.25GB Скачали: 12
Имя файла: 36478_-rutor.org-The_.torrent
Похожие торренты
Отзывы пользователей
Добавить отзыв