2.22GB / Вне поля зрения / Out of Sight (Стивен Содерберг) [1998, триллер, мелодрама, комедия, криминал, BDRip-AVC]

Категория: фильмы » Драмы
рейтинг из 5
  • Добавил: zlidny
  • Дата: 15/09/14, 16:09:09
  • Просмотры: 299
  • Отзывы: 0
?????
Название игры:
Год выхода игры:
Жанр игры: Комедии, Криминал, Триллеры, Драмы

Перевод: Профессиональный (многоголосый закадровый)Лицензия, субтитры: отсутствуют
Формат: BDRip-AVC, MKV, H.264, AC3
Страна: США

Режиссер: Стивен Содерберг
Жанр: триллер, мелодрама, комедия, криминал
Продолжительность: 02:02:49
Год выпуска: 1998

В ролях: Джордж Клуни, Дженнифер Лопез, Джим Робинсон, Майк Мэлоун, Донна Френзель, Мэнни Суарез, Деннис Фарина, Кит Хадсон, Луис Гузман

Описание: Джек Фоули — самый удачливый грабитель в стране, ограбивший более двухсот банков. Однажды, сбежав из тюрьмы, он понимает, что должен украсть кое-что более ценное, чем деньги… сердце Карен Сиско. Она умна, красива, но, к сожалению, Карен еще и работник прокуратуры. Теперь предстоит рискнуть всем, чтобы понять, есть ли между ними нечто большее, нежели Закон…




Видео: 1024x552 (1,85:1), 25,000 fps, H264 High@L4.1 ~ 1768 kbps avg, 0.130 bit/pixel

Аудио#1: русский 48 kHz, AC3 Dolby Digital, 2/0 (L,R) ch, ~448 kbps Профессиональный (многоголосый закадровый)Blu-ray EUR
Аудио#2: английский 48 kHz, AC3 Dolby Digital, 3/2 (L,C,R,l,r) + LFE ch, ~384 kbps Оригинал

MediaInfo
Общее
Уникальный идентификатор : 214222751260214186833667605088064136092 (0xA129CD17A62ADA339E89F85FBEF2639C)
Полное имя : D:\Заготовки\Out of Sight.mkv
Формат : Matroska
Версия формата : Version 4 / Version 2
Размер файла : 2,22 Гбайт
Продолжительность : 2 ч. 2 м.
Общий поток : 2583 Кбит/сек
Название фильма : Out of Sight (1998) - Release for HDCLUB
Дата кодирования : UTC 2014-09-11 15:14:12
Программа кодирования : mkvmerge v6.8.0 ('Theme for Great Cities') 64bit built on Mar 2 2014 21:34:26
Библиотека кодирования : libebml v1.3.0 + libmatroska v1.4.1

Видео
Идентификатор : 1
Формат : AVC
Формат/Информация : Advanced Video Codec
Профиль формата : High@L4.1
Параметр CABAC формата : Да
Параметр ReFrames формата : 5 кадров
Идентификатор кодека : V_MPEG4/ISO/AVC
Продолжительность : 2 ч. 2 м.
Битрейт : 1768 Кбит/сек
Ширина : 1024 пикселя
Высота : 552 пикселя
Соотношение сторон : 1,85:1
Режим частоты кадров : Постоянный
Частота кадров : 23,976 кадра/сек
Цветовое пространство : YUV
Субдискретизация насыщенности : 4:2:0
Битовая глубина : 8 бит
Тип развёртки : Прогрессивная
Бит/(Пиксели*Кадры) : 0.130
Размер потока : 1,46 Гбайт (66%)
Библиотека кодирования : x264 core 125 r2200 999b753
Настройки программы : cabac=1 / ref=5 / deblock=1:-3:-3 / analyse=0x3:0x113 / me=hex / subme=7 / psy=1 / psy_rd=1.00:0.00 / mixed_ref=1 / me_range=16 / chroma_me=1 / trellis=1 / 8x8dct=1 / cqm=0 / deadzone=21,11 / fast_pskip=1 / chroma_qp_offset=-2 / threads=6 / lookahead_threads=1 / sliced_threads=0 / nr=0 / decimate=1 / interlaced=0 / bluray_compat=0 / constrained_intra=0 / bframes=5 / b_pyramid=2 / b_adapt=1 / b_bias=0 / direct=1 / weightb=1 / open_gop=0 / weightp=2 / keyint=250 / keyint_min=23 / scenecut=40 / intra_refresh=0 / rc_lookahead=40 / rc=abr / mbtree=1 / bitrate=1768 / ratetol=1.0 / qcomp=0.60 / qpmin=0 / qpmax=69 / qpstep=4 / vbv_maxrate=50000 / vbv_bufsize=50000 / nal_hrd=none / ip_ratio=1.40 / aq=1:1.00
Default : Да
Forced : Нет

Аудио #1
Идентификатор : 2
Формат : AC-3
Формат/Информация : Audio Coding 3
Профиль формата : Dolby Digital
Расширение режима : CM (complete main)
Параметр Endianness формата : Big
Идентификатор кодека : A_AC3
Продолжительность : 2 ч. 2 м.
Вид битрейта : Постоянный
Битрейт : 448 Кбит/сек
Каналы : 2 канала
Расположение каналов : Front: L R
Частота : 48,0 КГц
Битовая глубина : 16 бит
Метод сжатия : С потерями
Размер потока : 394 Мбайт (17%)
Заголовок : AC3 2.0ch 448 kbps - Многоголосый закадровый
Язык : Russian
Default : Да
Forced : Нет

Аудио #2
Идентификатор : 3
Формат : AC-3
Формат/Информация : Audio Coding 3
Расширение режима : CM (complete main)
Параметр Endianness формата : Big
Идентификатор кодека : A_AC3
Продолжительность : 2 ч. 2 м.
Вид битрейта : Постоянный
Битрейт : 384 Кбит/сек
Каналы : 6 каналов
Расположение каналов : Front: L C R, Side: L R, LFE
Частота : 48,0 КГц
Битовая глубина : 16 бит
Метод сжатия : С потерями
Размер потока : 337 Мбайт (15%)
Заголовок : Оригинал
Язык : English
Default : Нет
Forced : Нет
 

скриншоты








Статистика торрента
Раздают: 250 Качают: 181 Размер: 2.22GB Скачали: 12
Имя файла: 37746_Out_of_Sight.mk.torrent
Похожие торренты
Отзывы пользователей
Добавить отзыв