2.18GB / Время / In Time (Эндрю Никкол) [2011, фантастика, триллер, драма, мелодрама, криминал, BDRip-AVC]

Категория: фильмы » Драмы
рейтинг из 5
  • Добавил: zlidny
  • Дата: 08/08/14, 08:52:54
  • Просмотры: 237
  • Отзывы: 0
?????
Название игры:
Год выхода игры:
Жанр игры: Криминал, Мелодрамы, Триллеры, Фантастика, Драмы

Перевод: Профессиональный (полное дублирование), cубтитры: русские, английские
Формат: BDRip-AVC, MKV, H.264, AC3
Страна: США
Режиссер: Эндрю Никкол
Жанр: фантастика, триллер, драма, мелодрама, криминал
Продолжительность: 01:49:16
Год выпуска: 2011

В ролях: Джастин Тимберлэйк, Аманда Сайфред, Киллиан Мёрфи, Алекс Петтифер, Винсент Картайзер, Джонни Галэки, Коллинс Пенни, Тоби Хемингуэй, Оливия Уайлд, Шайло Уствальд

Описание: Добро пожаловать в мир, где время стало единственной и самой твердой валютой, где люди генетически запрограммированы так, что в 25 лет перестают стареть. Правда, последующие годы стоят денег. И вот богатые становятся практически бессмертными, а бедные, как всегда, обречены сражаться за жизнь.
Уилл, бунтарь из гетто, несправедливо обвинен в убийстве с целью грабежа времени и вынужден, захватив заложницу, пуститься в бега. Так, ежеминутно рискуя жизнью, эти двое становятся грозным оружием в борьбе с системой. Но вот вопрос: кто кого? А может быть, в дело вмешается третья сила?..



Видео: 1120x476 (2.35:1), 23.976 fps, AVC (H.264), High@L4.1 ~2088 kbps, 0.163 bit/pixel
Аудио #1: Русский: 48 kHz, AC3 Dolby Digital, 3/2 (L,C,R,l,r) + LFE ch, ~384 kbps [Профессиональный (полное дублирование)]
Аудио #2: Английский: 48 kHz, AC3 Dolby Digital, 3/2 (L,C,R,l,r) + LFE ch, ~384 kbps [Оригинал]
 

Отчет MediaInfo
Общее
Уникальный идентификатор : 248629494721892453025888512791458423022 (0xBB0C4C8455D4C2ADADEC10FB4F2920EE)
Полное имя : E:\In.Time.barm.mkv
Формат : Matroska
Размер файла : 2,18 Гбайт
Продолжительность : 1 ч. 49 м.
Общий поток : 2858 Кбит/сек
Название фильма : In Time 2011
Дата кодирования : UTC 2012-01-25 09:20:50
Программа кодирования : mkvmerge v5.2.1 ('A Far Off Place') built on Jan 2 2012 23:21:10
Библиотека кодирования : libebml v1.2.3 + libmatroska v1.3.0
Обложка : Yes

Видео
Идентификатор : 1
Формат : AVC
Формат/Информация : Advanced Video Codec
Профиль формата : High@L4.1
Параметр CABAC формата : Да
Параметр ReFrames формата : 12 кадров
Идентификатор кодека : V_MPEG4/ISO/AVC
Продолжительность : 1 ч. 49 м.
Битрейт : 2088 Кбит/сек
Ширина : 1120 пикс.
Высота : 476 пикс.
Соотношение сторон : 2,35:1
Частота кадров : 23,976 кадр/сек
Цветовое пространство : YUV
Подвыборка цветности : 4:2:0
Битовая глубина : 8 бит
Тип развёртки : Прогрессивная
Бит/(Пиксели*Кадры) : 0.163
Размер потока : 1,55 Гбайт (71%)
Заголовок : In Time
Библиотека кодирования : x264 core 120 r2146 bcd41db
Настройки программы : cabac=1 / ref=12 / deblock=1:-3:-2 / analyse=0x3:0x113 / me=umh / subme=10 / psy=1 / psy_rd=0.95:0.05 / mixed_ref=1 / me_range=32 / chroma_me=1 / trellis=2 / 8x8dct=1 / cqm=0 / deadzone=21,11 / fast_pskip=0 / chroma_qp_offset=-3 / threads=6 / sliced_threads=0 / nr=0 / decimate=0 / interlaced=0 / bluray_compat=0 / constrained_intra=0 / bframes=8 / b_pyramid=2 / b_adapt=2 / b_bias=0 / direct=3 / weightb=1 / open_gop=0 / weightp=2 / keyint=250 / keyint_min=23 / scenecut=40 / intra_refresh=0 / rc_lookahead=0 / rc=2pass / mbtree=0 / bitrate=2088 / ratetol=1.0 / qcomp=0.70 / qpmin=0 / qpmax=69 / qpstep=4 / cplxblur=20.0 / qblur=0.5 / vbv_maxrate=50000 / vbv_bufsize=62500 / nal_hrd=none / ip_ratio=1.35 / pb_ratio=1.25 / aq=2:0.90 / zones=150740,157205,q=30
Язык : English
Коэффициенты матрицы : BT.709-5, BT.1361, IEC 61966-2-4 709, SMPTE RP177

Аудио #1
Идентификатор : 2
Формат : AC-3
Формат/Информация : Audio Coding 3
Расширение режима : CM (complete main)
Идентификатор кодека : A_AC3
Продолжительность : 1 ч. 49 м.
Вид битрейта : Постоянный
Битрейт : 384 Кбит/сек
Каналы : 6 каналов
Расположение каналов : Front: L C R, Side: L R, LFE
Частота : 48,0 КГц
Битовая глубина : 16 бит
Метод сжатия : С потерями
Размер потока : 300 Мбайт (13%)
Заголовок : Dubljaz, 48 kHz, AC3, 3/2 (L,C,R,l,r) + LFE ch, ~ 384.00 kbps
Язык : Russian

Аудио #2
Идентификатор : 3
Формат : AC-3
Формат/Информация : Audio Coding 3
Расширение режима : CM (complete main)
Идентификатор кодека : A_AC3
Продолжительность : 1 ч. 49 м.
Вид битрейта : Постоянный
Битрейт : 384 Кбит/сек
Каналы : 6 каналов
Расположение каналов : Front: L C R, Side: L R, LFE
Частота : 48,0 КГц
Битовая глубина : 16 бит
Метод сжатия : С потерями
Размер потока : 300 Мбайт (13%)
Заголовок : Original, 48 kHz, AC3, 3/2 (L,C,R,l,r) + LFE ch, ~ 384.00 kbps
Язык : English

Текст #1
Идентификатор : 4
Формат : UTF-8
Идентификатор кодека : S_TEXT/UTF8
Идентификатор кодека/Информация : UTF-8 Plain Text
Заголовок : Forced
Язык : Russian

Текст #2
Идентификатор : 5
Формат : UTF-8
Идентификатор кодека : S_TEXT/UTF8
Идентификатор кодека/Информация : UTF-8 Plain Text
Язык : Russian

Текст #3
Идентификатор : 6
Формат : UTF-8
Идентификатор кодека : S_TEXT/UTF8
Идентификатор кодека/Информация : UTF-8 Plain Text
Язык : English

Текст #4
Идентификатор : 7
Формат : UTF-8
Идентификатор кодека : S_TEXT/UTF8
Идентификатор кодека/Информация : UTF-8 Plain Text
Заголовок : SDH
Язык : English

Меню
00:00:00.000 : en:Chapter 1
00:05:54.271 : en:Chapter 2
00:10:50.733 : en:Chapter 3
00:18:58.095 : en:Chapter 4
00:22:16.377 : en:Chapter 5
00:25:30.446 : en:Chapter 6
00:29:51.915 : en:Chapter 7
00:34:41.746 : en:Chapter 8
00:38:24.886 : en:Chapter 9
00:41:23.898 : en:Chapter 10
00:44:44.724 : en:Chapter 11
00:48:08.302 : en:Chapter 12
00:51:32.548 : en:Chapter 13
00:53:56.150 : en:Chapter 14
00:56:16.873 : en:Chapter 15
01:00:25.372 : en:Chapter 16
01:05:41.146 : en:Chapter 17
01:08:57.800 : en:Chapter 18
01:11:19.484 : en:Chapter 19
01:14:05.107 : en:Chapter 20
01:16:48.979 : en:Chapter 21
01:20:20.983 : en:Chapter 22
01:22:44.293 : en:Chapter 23
01:27:17.107 : en:Chapter 24
01:29:22.399 : en:Chapter 25
01:33:26.017 : en:Chapter 26
01:37:16.956 : en:Chapter 27
01:42:56.462 : en:Chapter 28

Статистика торрента
Раздают: 126 Качают: 195 Размер: 2.18GB Скачали: 18
Имя файла: 36729_In.Time.barm.mk.torrent
Похожие торренты
Отзывы пользователей
Добавить отзыв