1.98GB / Порочные игры / Стокеры / Stoker (Пак Чхан Ук) [2013, триллер, драма, детектив, BDRip-AVC]

Категория: фильмы » Драмы
рейтинг из 5
  • Добавил: zlidny
  • Дата: 10/08/14, 15:34:57
  • Просмотры: 180
  • Отзывы: 0
?????
Название игры:
Год выхода игры:
Жанр игры: Детективы, Триллеры, Драмы

Перевод: Профессиональный (многоголосый, закадровый) [Лицензия]

Cубтитры: русские, английские

Формат: BDRip-AVC, MKV, H.264, AC3

Страна: Великобритания, США

Режиссер: Пак Чхан Ук

Жанр: триллер, драма, детектив

Продолжительность: 01:38:56

Год выпуска: 2013

В ролях: Миа Васиковска, Мэттью Гуд, Николь Кидман, Дэвид Элфорд, Пег Аллен, Лорен Э., Роман Филлис, Соммервиль Хармони Корин, Лукас Тилл, Олден Эйренрайк

Описание: В день похорон преуспевающего архитектора Ричарда Стокера к родственникам усопшего приезжает его брат, Чарли Стокер, приходящийся заодно дядей девушке по имени Индия. Мать девушки предлагает дяде остаться на какое-то время. Но ни мать, ни Индия, не догадываются, чем для них обернётся присутствие в доме дядюшки Чарли и как переменится в результате невинная Индия. Вот только такая ли она уж невинная…?

________ ________

Видео: 1024x426 (2.40:1), 23.976 fps, AVC (H.264), High@L4.1 ~ 1829 kbps, 0.177 bit/pixel

Аудио #1: Русский: 48 kHz, AC3 Dolby Digital, 3/2 (L,C,R,l,r) + LFE ch, 384 kbps [Профессиональный (многоголосый, закадровый)]
Аудио #2: Английский: 48 kHz, AC3 Dolby Digital, 3/2 (L,C,R,l,r) + LFE ch, 384 kbps [Оригинал]
 

Интересные факты
Это первый англоязычный фильм режиссера Пак Чхан Ука.

Претендентами на роль Чарли Стокера были Колин Фёрт, Джеймс Франко, Майкл Фассбендер и Джоэл Эдгертон. Первоначально роль отдали Фёрту, но тот отказался и вместо него взяли Мэттью Гуда.

Сценарий Вентворта Миллера в 2010 году занял пятое место в «Чёрном списке» — десятке лучших нереализованных сценариев.

Фильм был снят за 40 дней.

Претендентками на роль Индии были Кэри Маллиган, Кристен Стюарт, Руни Мара, Эмили Браунинг, Эмма Робертс, Белла Хиткот и Эшли Грин.

На съёмочной площадке режиссёр общался с актёрами с помощью англоязычного переводчика. Мэттью Гуд пошутил по этому поводу: «Пак понимал больше, чем он делал вид. Дать ему немного виски — он действительно знает язык.»

Фильм Альфреда Хичкока «Тень сомнения» (1943) послужил вдохновением Вентворту Миллеру для написания сценария.

Композиторы Филип Гласс и Клинт Мэнселл сотрудничали в разработке саундтрека к фильму: Мэнселл написал основной саундтрек, а Гласс написал мелодию, которую играют Индия и Чарли на рояле.

Съёмки фильма начались в сентябре 2011 года в Нашвилле, штат Теннеси, недалеко от резиденции Николь Кидман.

Джоди Фостер и Кэри Маллиган были выбраны на роли в этом фильме, но обе отказались и вместо них роли получили Миа Васиковска и Николь Кидман.

Это первый сценарий, написанный Вентвортом Миллером.

Вентворт Миллер рассказал в интервью, что он представлял Мэттью Гуда в роли Чарльза Стокера, когда писал сценарий.

Джоди Фостер была первоначально взята на главную роль в фильме, но отказалась и вместо нее роль получила Николь Кидман. В фильме «Комната страха» (2002) было наоборот — Николь Кидман могла получить главную роль, но отказалась, и вместо нее взяли Джоди Фостер.
Рецензия mazdie345
Слоган к фильму «Do not disturb the family» можно перевести, как «Не тревожь семью».
Сразу отмечу, что данный фильм относится к работам, о которых говорят «кино не для всех». После интригующего и весьма драматического развития сюжета, после шокирующего и иррационального финала, когда по экрану неспешно под красивый саундтрек поползли титры, на ум пришло только одно: «Что это было?»

Южнокорейский режиссер Пак Чхан Ук, известный российскому зрителю по киноленте «Олдбой» 2003 года, при поддержке таких именитых продюсеров, как Майкл Костиган, Ридли Скотт и Тони Скотт, снял своеобразный психологический триллер о семье, относящейся к фамилии Стокер. Не понятно, почему фильм вышел в прокат под названием «Порочные игры»? На мой взгляд, именно такой перевод оригинального названия кинокартины вносит еще больше сумятицы в ее восприятии и осознании.

Позиция кинофильма усилена превосходной игрой Николь Кидман, Мэтью Гуд и, вне всяких похвал, Миа Васиковска. Последняя замечательно передала внутренний мир своей героини, - Индии – девушки, воспринимающей окружающий мир исключительно через чувства: музыка, рисование, замкнутость… Замкнутость и отчужденность от окружающего мира внешне объясняется преждевременной смертью отца, но внутри нее набирает силу вулкан неконтролируемой страсти. Порой возникало подозрение, а не больна ли Индия аутизмом или у нее пограничное состояние? Финал этой нескучной истории позволит вам найти ответ на этот вопрос.

Не меньшего внимания заслуживает игра Никотль Кидман, исполнившей роль вдовы и матери Индии. Ее партия в этой кинокартине сыграна убедительно, тонко, красиво, полная драматизма. Да разве Кидман умеет плохо играть?

Мэтью Гуд, вот у кого связующая роль во всей этой не простой истории. Пропадал всю жизнь где-то, неожиданно появляется на похоронах брата и «здравствуйте, я ваш дядя!». Ненавязчиво, мягко он вошел в семью, о которой мечтал всю свою жизнь, и к которой стремился. Казалось, ничего плохого в этом нет, но покой, и внутренняя гармония семьи нарушены, ее пограничное состояние сдвинулось.

И над всем этим изяществом на всем его протяжении звучит пронизывающая сознание музыка. Словно вселенская скорбь льется в каждом ее звуке, наполняя атмосферу фильма и унося с собой вашу духовную суть. А эта игра в «четыре руки» на рояле?! Просто взрыв эмоций! Прослушивая отдельно оригинальный саундтрек к этому фильму, я словно заново прошел весь путь этой безумной семейки, над судьбой которой, казалось, скорбит Небо.

Пак Чхан Ук создал удивительный фильм, подобного которому белая простыня экрана давно уже не видела. Кому-то фильм покажется нудным, кому-то сюжет, имеющий все-таки небольшие огрехи, скучным и бессмысленным, но уверен, что поклонники качественного европейского кино оценят его работу по достоинству.

Вернусь к вопросу: «Так что это было?». Отвечу: «Магия кино!»

© Участник группы "Рецензенты" _ mazdie345
 
MediaInfo
Общее
Уникальный идентификатор : 248639587559209071166761251845858962622 (0xBB0E3E21DA0EB7FD8B555D7A5340ACBE)
Полное имя : Stoker.2013.x264.BDRip.(AVC).mkv
Формат : Matroska
Версия формата : Version 4 / Version 2
Размер файла : 1,98 Гбайт
Продолжительность : 1 ч. 38 м.
Общий поток : 2974 Кбит/сек
Название фильма : Created by filin1984 for Кинозал.ТВ
Дата кодирования : UTC 2013-07-09 17:31:10
Программа кодирования : mkvmerge v6.3.0 ('You can't stop me!') built on Jun 28 2013 20:09:41
Библиотека кодирования : libebml v1.3.0 + libmatroska v1.4.0

Видео
Идентификатор : 1
Формат : AVC
Формат/Информация : Advanced Video Codec
Профиль формата : High@L4.1
Параметр CABAC формата : Да
Параметр ReFrames формата : 11 кадров
Идентификатор кодека : V_MPEG4/ISO/AVC
Продолжительность : 1 ч. 38 м.
Битрейт : 1829 Кбит/сек
Ширина : 1024 пикселя
Высота : 426 пикселей
Соотношение сторон : 2,40:1
Режим частоты кадров : Постоянный
Частота кадров : 23,976 кадра/сек
Цветовое пространство : YUV
Субдискретизация насыщенности : 4:2:0
Битовая глубина : 8 бит
Тип развёртки : Прогрессивная
Бит/(Пиксели*Кадры) : 0.177
Размер потока : 1,14 Гбайт (58%)
Библиотека кодирования : x264 core 125 r2208 d9d2288
Настройки программы : cabac=1 / ref=11 / deblock=1:-2:-1 / analyse=0x3:0x113 / me=umh / subme=9 / psy=1 / psy_rd=1.00:0.10 / mixed_ref=1 / me_range=32 / chroma_me=1 / trellis=1 / 8x8dct=1 / cqm=0 / deadzone=21,11 / fast_pskip=0 / chroma_qp_offset=-3 / threads=3 / lookahead_threads=1 / sliced_threads=0 / nr=0 / decimate=1 / interlaced=0 / bluray_compat=0 / constrained_intra=0 / bframes=10 / b_pyramid=2 / b_adapt=1 / b_bias=0 / direct=3 / weightb=1 / open_gop=0 / weightp=2 / keyint=240 / keyint_min=23 / scenecut=40 / intra_refresh=0 / rc_lookahead=60 / rc=2pass / mbtree=1 / bitrate=1711 / ratetol=1.0 / qcomp=0.60 / qpmin=0 / qpmax=69 / qpstep=4 / cplxblur=20.0 / qblur=0.5 / ip_ratio=1.40 / aq=1:1.00
Язык : English
Default : Да
Forced : Нет

Аудио #1
Идентификатор : 2
Формат : AC-3
Формат/Информация : Audio Coding 3
Расширение режима : CM (complete main)
Параметр Endianness формата : Big
Идентификатор кодека : A_AC3
Продолжительность : 1 ч. 38 м.
Вид битрейта : Постоянный
Битрейт : 384 Кбит/сек
Каналы : 6 каналов
Расположение каналов : Front: L C R, Side: L R, LFE
Частота : 48,0 КГц
Битовая глубина : 16 бит
Метод сжатия : С потерями
Размер потока : 272 Мбайт (13%)
Заголовок : MVO
Язык : Russian
Default : Да
Forced : Нет

Аудио #2
Идентификатор : 3
Формат : AC-3
Формат/Информация : Audio Coding 3
Расширение режима : CM (complete main)
Параметр Endianness формата : Big
Идентификатор кодека : A_AC3
Продолжительность : 1 ч. 38 м.
Вид битрейта : Постоянный
Битрейт : 384 Кбит/сек
Каналы : 6 каналов
Расположение каналов : Front: L C R, Side: L R, LFE
Частота : 48,0 КГц
Битовая глубина : 16 бит
Метод сжатия : С потерями
Размер потока : 272 Мбайт (13%)
Заголовок : AVO
Язык : Russian
Default : Нет
Forced : Нет

Аудио #3
Идентификатор : 4
Формат : AC-3
Формат/Информация : Audio Coding 3
Расширение режима : CM (complete main)
Параметр Endianness формата : Big
Идентификатор кодека : A_AC3
Продолжительность : 1 ч. 38 м.
Вид битрейта : Постоянный
Битрейт : 384 Кбит/сек
Каналы : 6 каналов
Расположение каналов : Front: L C R, Side: L R, LFE
Частота : 48,0 КГц
Битовая глубина : 16 бит
Метод сжатия : С потерями
Размер потока : 272 Мбайт (13%)
Язык : English
Default : Нет
Forced : Нет

Текст #1
Идентификатор : 5
Формат : UTF-8
Идентификатор кодека : S_TEXT/UTF8
Идентификатор кодека/Информация : UTF-8 Plain Text
Язык : Russian
Default : Нет
Forced : Нет

Текст #2
Идентификатор : 6
Формат : UTF-8
Идентификатор кодека : S_TEXT/UTF8
Идентификатор кодека/Информация : UTF-8 Plain Text
Язык : English
Default : Нет
Forced : Нет

Текст #3
Идентификатор : 7
Формат : UTF-8
Идентификатор кодека : S_TEXT/UTF8
Идентификатор кодека/Информация : UTF-8 Plain Text
Заголовок : SDH
Язык : English
Default : Нет
Forced : Нет

Текст #4
Идентификатор : 8
Формат : UTF-8
Идентификатор кодека : S_TEXT/UTF8
Идентификатор кодека/Информация : UTF-8 Plain Text
Заголовок : SDH-COLORED
Язык : English
Default : Нет
Forced : Нет

Меню
00:00:00.000 : en:00:00:00.000
00:03:48.603 : en:00:03:48.603
00:04:37.277 : en:00:04:37.277
00:07:26.863 : en:00:07:26.863
00:08:42.147 : en:00:08:42.147
00:13:28.558 : en:00:13:28.558
00:16:59.810 : en:00:16:59.810
00:19:24.955 : en:00:19:24.955
00:22:27.096 : en:00:22:27.096
00:26:50.067 : en:00:26:50.067
00:30:26.533 : en:00:30:26.533
00:34:43.290 : en:00:34:43.290
00:39:18.565 : en:00:39:18.565
00:41:47.505 : en:00:41:47.505
00:46:14.772 : en:00:46:14.772
00:49:42.730 : en:00:49:42.730
00:52:46.830 : en:00:52:46.830
00:54:50.496 : en:00:54:50.496
00:59:21.558 : en:00:59:21.558
01:02:43.051 : en:01:02:43.051
01:07:04.187 : en:01:07:04.187
01:08:38.239 : en:01:08:38.239
01:15:24.895 : en:01:15:24.895
01:18:14.773 : en:01:18:14.773
01:22:11.927 : en:01:22:11.927
01:26:22.511 : en:01:26:22.511
01:31:17.472 : en:01:31:17.472
01:34:38.214 : en:01:34:38.214

Статистика торрента
Раздают: 397 Качают: 89 Размер: 1.98GB Скачали: 14
Имя файла: 36818_Stoker.2013.x26.torrent
Похожие торренты
Отзывы пользователей
Добавить отзыв