1.78GB / Таймлесс 2: Сапфировая книга / Saphirblau (Феликс Фуксштайнер, Катарина Шёде ) [2014, фантастика, фэнтези, драма, мелодрама, детект

Категория: фильмы » Драмы
рейтинг из 5
  • Добавил: zlidny
  • Дата: 27/10/14, 17:50:07
  • Просмотры: 308
  • Отзывы: 0
?????
Название игры:
Год выхода игры:
Жанр игры: Детективы, Мелодрамы, Фантастика, Фентези, Драмы

Перевод: Профессиональный (многоголосый закадровый)

Cубтитры: отсутствуют

Формат: WEB-DLRip-AVC, MKV, H.264, AC3

Страна: Германия

Режиссер: Феликс Фуксштайнер, Катарина Шёде

Жанр: фантастика, фэнтези, драма, мелодрама, детектив

Продолжительность: 01:56:00

Год выпуска: 2014

В ролях: Мария Эрих, Лаура Берлин, Яннис Нивёнер, Петер Симонишек, Йозефина Пройсс, Флориан Бартоломай, Руфус Бек, Сандра Боргманн, Юстина дель Корте, Вероника Феррес

Описание: Приключения юной Гвендолин Шеферд продолжаются. Она начинает все больше узнавать о тайнах мира путешественников во времени. Ей предстоит разгадать больше загадок и научиться быть светской леди для приемов в 18 веке. Гвендолин узнает больше о своей семье, в первую очередь о ее дедушке Лукасе. Также Гвен подозревает, что Гидеон скрывает что-то от нее, возможно какую-то сокровенную страшную тайну… Но с появлением нового, слегка надоедливого друга Ксемериуса, девушке становится легче преодолевать все препятствия на пути.

_______________

Видео: 1280x528 (2.40:1), 23.976 fps, AVC (H.264), High@L4.1 ~ 2000 Кbps, 0.123 bit/pixel
Аудио: 48 kHz, AC3 Dolby Digital, 2/0 (L,R) ch, ~192 kbps
 

MediaInfo
Общее
Уникальный идентификатор : 199229827737994154449856206032535462984 (0x95E244E41A4C30508F09601BF476A448)
Полное имя : D:\Мужа\Таймлесс.2.Сапфировая.книга.2014.WEB-DLRip.720p.NNM-CLUB.mkv
Формат : Matroska
Версия формата : Version 4 / Version 2
Размер файла : 1,78 Гбайт
Продолжительность : 1 ч. 56 м.
Общий поток : 2194 Кбит/сек
Дата кодирования : UTC 2014-10-26 15:17:11
Программа кодирования : mkvmerge v6.1.0 ('Old Devil') built on Mar 2 2013 14:32:37
Библиотека кодирования : libebml v1.3.0 + libmatroska v1.4.0
DURATION : 01:56:06.188000000
NUMBER_OF_FRAMES : 167189
NUMBER_OF_BYTES : 1741296409
_STATISTICS_WRITING_APP : mkvmerge v7.2.0 ('On Every Street') 64bit built on Sep 13 2014 15:52:10
_STATISTICS_WRITING_DATE_UTC : 2014-10-26 15:12:46
_STATISTICS_TAGS : BPS DURATION NUMBER_OF_FRAMES NUMBER_OF_BYTES

Видео
Идентификатор : 1
Формат : AVC
Формат/Информация : Advanced Video Codec
Профиль формата : High@L3.1
Параметр CABAC формата : Да
Параметр ReFrames формата : 3 кадра
Идентификатор кодека : V_MPEG4/ISO/AVC
Продолжительность : 1 ч. 56 м.
Битрейт : 2000 Кбит/сек
Ширина : 1280 пикселей
Высота : 528 пикселей
Соотношение сторон : 2,40:1
Режим частоты кадров : Постоянный
Частота кадров : 24,000 кадра/сек
Цветовое пространство : YUV
Субдискретизация насыщенности : 4:2:0
Битовая глубина : 8 бит
Тип развёртки : Прогрессивная
Бит/(Пиксели*Кадры) : 0.123
Размер потока : 1,59 Гбайт (89%)
Библиотека кодирования : x264 core 120
Настройки программы : cabac=1 / ref=3 / deblock=1:0:0 / analyse=0x3:0x133 / me=hex / subme=6 / psy=1 / psy_rd=1.00:0.00 / mixed_ref=0 / me_range=16 / chroma_me=1 / trellis=1 / 8x8dct=1 / cqm=0 / deadzone=21,11 / fast_pskip=0 / chroma_qp_offset=-2 / threads=12 / sliced_threads=0 / nr=0 / decimate=1 / interlaced=0 / bluray_compat=0 / constrained_intra=0 / bframes=3 / b_pyramid=1 / b_adapt=2 / b_bias=0 / direct=1 / weightb=1 / open_gop=0 / weightp=2 / keyint=96 / keyint_min=49 / scenecut=0 / intra_refresh=0 / rc_lookahead=40 / rc=2pass / mbtree=1 / bitrate=2000 / ratetol=1.0 / qcomp=0.60 / qpmin=3 / qpmax=69 / qpstep=4 / cplxblur=20.0 / qblur=0.5 / ip_ratio=1.40 / aq=1:1.00
Default : Да
Forced : Нет
Основные цвета : BT.709
Характеристики трансфера : BT.709
Коэффициенты матрицы : BT.709

Аудио
Идентификатор : 2
Формат : AC-3
Формат/Информация : Audio Coding 3
Расширение режима : CM (complete main)
Параметр Endianness формата : Big
Идентификатор кодека : A_AC3
Продолжительность : 1 ч. 56 м.
Вид битрейта : Постоянный
Битрейт : 192 Кбит/сек
Каналы : 2 канала
Расположение каналов : Front: L R
Частота : 48,0 КГц
Битовая глубина : 16 бит
Метод сжатия : С потерями
Задержка видео : -83 мс.
Размер потока : 159 Мбайт (9%)
Default : Да
Forced : Нет

Статистика торрента
Раздают: 366 Качают: 3 Размер: 1.78GB Скачали: 25
Имя файла: 38929_Tajmless.2.Sapf.torrent
Похожие торренты
Отзывы пользователей
Добавить отзыв