1.5GB / Секс ради выживания / Survival Island / Three (Стюарт Рэффил) [2005, триллер, драма, приключения, BDRip-AVC]

Категория: фильмы » Драмы
рейтинг из 5
  • Добавил: zlidny
  • Дата: 13/08/14, 14:14:31
  • Просмотры: 267
  • Отзывы: 0
?????
Название игры:
Год выхода игры:
Жанр игры: Приключения, Триллеры, Драмы

Перевод: Профессиональный (полное дублирование), субтитры: отсутствуют
Формат: BDRip-AVC, MKV, H.264, AC3
Страна: США, Великобритания, Люксембург
Режиссер: Стюарт Рэффил
Жанр: триллер, драма, приключения
Продолжительность: 01:31:30
Год выпуска: 2005
В ролях: Билли Зейн, Келли Брук, Хуан Пабло Ди Паке, Тодд Коллинз, Гэбриэлль Джордан, Гэри Брокетт, Изабелль Константини, Рой Ривера, Мария Виктория Ди Паке, Саммер Дэвис

Описание: Молодожены Джек и Дженнифер решают провести медовый месяц на роскошной яхте. Спустя несколько дней, судно терпит крушение у берегов незнакомого острова. Спастись удается лишь хозяевам яхты и матросу по имени Мануэль. Несчастные оказываются в полной изоляции от большой земли.

Приспособленный к жизни в экстремальных условиях, Мануэль берет на себя заботу об изнеженных богачах, добывая для них пищу и воду. Впечатлительной Дженнифер не под силу устоять перед обаянием красавца Мануэля, и довольно скоро между ними вспыхивает непреодолимая страсть.

Ревность превращает Джека в монстра, ярость и жестокость которого не знает границ. Мужчины начинают настоящую войну за обладание красавицей, и кто знает, кому суждено выбраться с затерянного острова…



Видео: 720x384 (16:9), 25,000 fps, AVC (х264), High@L3.1 , ~ 1975 kbps avg, 0.286 bit/pixel
Аудио: 48.0 kHz, AC3, (Front: L C R, Side: L R, LFE) , 6 ch ~384Kbps avg
 

MediaInfo
Общее
Уникальный идентификатор : 179645246929466659084825676156637826347 (0x87266A81C86C2525B2D548767C984D2B)
Полное имя : D:\Downloads\Three.mkv
Формат : Matroska
Версия формата : Version 2
Размер файла : 1,50 Гбайт
Продолжительность : 1 ч. 31 м.
Общий поток : 2346 Кбит/сек
Дата кодирования : UTC 2010-05-26 16:15:12
Программа кодирования : mkvmerge v2.7.0 ('Do It Again') built on Apr 15 2009 00:27:10
Библиотека кодирования : libebml v0.7.7 + libmatroska v0.8.1
COMPOSER : FISKA

Видео
Идентификатор : 1
Формат : AVC
Формат/Информация : Advanced Video Codec
Профиль формата : High@L3.1
Параметр CABAC формата : Да
Параметр ReFrames формата : 2 кадра
Идентификатор кодека : V_MPEG4/ISO/AVC
Продолжительность : 1 ч. 31 м.
Битрейт : 1975 Кбит/сек
Ширина : 720 пикселей
Высота : 384 пикселя
Соотношение сторон : 16:9
Соотношение сторон в оригинале : 1,85:1
Режим частоты кадров : Постоянный
Частота кадров : 25,000 кадров/сек
Цветовое пространство : YUV
Субдискретизация насыщенности : 4:2:0
Битовая глубина : 8 бит
Тип развёртки : Прогрессивная
Бит/(Пиксели*Кадры) : 0.286
Размер потока : 1,22 Гбайт (82%)
Библиотека кодирования : x264 core 1679598476Dec 5 2009
Настройки программы : cabac=1 / ref=1 / deblock=0:0:0 / analyse=0x3:0x113 / me=hex / subme=5 / psy=1 / psy_rd=0.0:0.0 / mixed_ref=0 / me_range=16 / chroma_me=1 / trellis=0 / 8x8dct=1 / cqm=0 / deadzone=21,11 / chroma_qp_offset=0 / threads=1 / nr=0 / decimate=1 / mbaff=0 / bframes=3 / b_pyramid=0 / b_adapt=1 / b_bias=0 / direct=1 / wpredb=1 / keyint=250 / keyint_min=1 / scenecut=40 / rc_lookahead=40 / rc=abr / mbtree=1 / bitrate=1975 / ratetol=1.0 / qcomp=0.50 / qpmin=2 / qpmax=31 / qpstep=4 / ip_ratio=1.40 / aq=1:0.30
Язык : Russian
Default : Да
Forced : Нет

Аудио
Идентификатор : 2
Формат : AC-3
Формат/Информация : Audio Coding 3
Расширение режима : CM (complete main)
Параметр Endianness формата : Big
Идентификатор кодека : A_AC3
Продолжительность : 1 ч. 31 м.
Вид битрейта : Постоянный
Битрейт : 384 Кбит/сек
Каналы : 6 каналов
Расположение каналов : Front: L C R, Side: L R, LFE
Частота : 48,0 КГц
Битовая глубина : 16 бит
Метод сжатия : С потерями
Размер потока : 251 Мбайт (16%)
Язык : Russian
Default : Да
Forced : Нет
Знаете ли вы, что...

В фильме героиня Келли Брук предпочла персонажа Хуана Пабло Ди Паке. Примечательно то, что в реальной жизни Келли Брук почти три года встречалась с Билли Зейном.

Статистика торрента
Раздают: 370 Качают: 95 Размер: 1.5GB Скачали: 19
Имя файла: 36932_Three.mkv-tfile.torrent
Похожие торренты
Отзывы пользователей
Добавить отзыв