1.49GB / Питер. Лето. Любовь (Андрей Хвостов) [2013, драма, мелодрама, WEB-DL]

Категория: фильмы » Драмы
рейтинг из 5
  • Добавил: zlidny
  • Дата: 29/07/14, 12:49:14
  • Просмотры: 185
  • Отзывы: 0
?????
Название игры:
Год выхода игры:
Жанр игры: Мелодрамы, Драмы

Формат: WEB-DL, MKV, H.264, AC3
Выпущено: Россия, Великобритания, Bear in Mind Films, Curb Denizen
Режиссер: Андрей Хвостов
Жанр: драма, мелодрама
Продолжительность: 01:23:05
Год выпуска: 2013
В ролях: Терри Суини, Надежда Толубеева, Константин Малышев, Леонид Мозговой, Джонатан Бенда, Катрин МакДонаф, Алессандра Джунтини, Николай Куглянт, Екатерина Тарасова, Елена Симонова
Описание: Двадцатипятилетний британец Эллиот, бросивший преподавание в школе танцев Оксфорда, решает кардинально изменить свою жизнь. Он отправляется в Санкт-Петербург, где живет его сводный брат Федор, с которым он никогда не виделся.



Видео: 1280x572 (2.25:1), 25 fps, AVC (х.264) High@L4.0 ~2113 kbps avg, 0.115 bit/pixel
Аудио: 48 kHz, АС3, 6 ch, Front: L C R, Side: L R, LFE ~448.00 kbps avg
 

MI
Общее
Полное имя : C:\Users\Admin\Downloads\Piter.leto.love.2014.720p.MegaPeer.mkv
Формат : Matroska
Версия формата : Version 4 / Version 2
Размер файла : 1,49 Гбайт
Продолжительность : 1 ч. 23 м.
Общий поток : 2565 Кбит/сек
Дата кодирования : UTC 2014-07-27 21:56:41
Программа кодирования : mkvmerge v6.7.0 ('Back to the Ground') 64bit built on Jan 8 2014 15:10:52
Библиотека кодирования : libebml v1.3.0 + libmatroska v1.4.1

Видео
Идентификатор : 1
Формат : AVC
Формат/Информация : Advanced Video Codec
Профиль формата : High@L4.0
Параметр CABAC формата : Да
Параметр ReFrames формата : 3 кадра
Идентификатор кодека : V_MPEG4/ISO/AVC
Продолжительность : 1 ч. 23 м.
Битрейт : 2113 Кбит/сек
Ширина : 1280 пикселей
Высота : 572 пикселя
Соотношение сторон : 2,25:1
Режим частоты кадров : Постоянный
Частота кадров : 25,000 кадров/сек
Цветовое пространство : YUV
Субдискретизация насыщенности : 4:2:0
Битовая глубина : 8 бит
Тип развёртки : Прогрессивная
Бит/(Пиксели*Кадры) : 0.115
Размер потока : 1,20 Гбайт (81%)
Библиотека кодирования : x264 core 142
Настройки программы : cabac=1 / ref=4 / deblock=1:0:0 / analyse=0x3:0x133 / me=umh / subme=9 / psy=1 / psy_rd=1.00:0.00 / mixed_ref=1 / me_range=24 / chroma_me=1 / trellis=2 / 8x8dct=1 / cqm=0 / deadzone=21,11 / fast_pskip=1 / chroma_qp_offset=-2 / threads=2 / lookahead_threads=1 / sliced_threads=0 / nr=0 / decimate=1 / interlaced=0 / bluray_compat=0 / constrained_intra=0 / bframes=9 / b_pyramid=1 / b_adapt=2 / b_bias=0 / direct=3 / weightb=1 / open_gop=0 / weightp=2 / keyint=100 / keyint_min=51 / scenecut=0 / intra_refresh=0 / rc_lookahead=100 / rc=2pass / mbtree=1 / bitrate=2113 / ratetol=1.0 / qcomp=0.60 / qpmin=0 / qpmax=69 / qpstep=4 / cplxblur=20.0 / qblur=0.5 / vbv_maxrate=2747 / vbv_bufsize=3170 / nal_hrd=none / filler=0 / ip_ratio=1.40 / aq=1:1.00
Язык : English
Default : Да
Forced : Нет

Аудио
Идентификатор : 2
Формат : AC-3
Формат/Информация : Audio Coding 3
Расширение режима : CM (complete main)
Параметр Endianness формата : Big
Идентификатор кодека : A_AC3
Продолжительность : 1 ч. 23 м.
Вид битрейта : Постоянный
Битрейт : 448 Кбит/сек
Каналы : 6 каналов
Расположение каналов : Front: L C R, Side: L R, LFE
Частота : 48,0 КГц
Битовая глубина : 16 бит
Метод сжатия : С потерями
Размер потока : 266 Мбайт (17%)
Язык : Russian
Default : Да
Forced : Нет

Статистика торрента
Раздают: 142 Качают: 186 Размер: 1.49GB Скачали: 17
Имя файла: 36384_Piter.leto.love.torrent
Похожие торренты
Отзывы пользователей
Добавить отзыв