1.46GB / Как я теперь люблю / Как я теперь живу / How I Live Now (Кевин МакДональд) [2013, фэнтези, драма, мелодрама, BDRip-AVC]

Категория: фильмы » Драмы
рейтинг из 5
  • Добавил: zlidny
  • Дата: 03/10/14, 11:07:59
  • Просмотры: 316
  • Отзывы: 0
?????
Название игры:
Год выхода игры:
Жанр игры: Мелодрамы, Фентези, Драмы

Перевод: Профессиональный (многоголосый закадровый) [Лицензия]

Субтитры: русские, английские

Формат: BDRip-AVC, MKV, H.264, AC3

Страна: Великобритания

Режиссер: Кевин МакДональд

Жанр: фэнтези, драма, мелодрама

Продолжительность: 01:41:11

Год выпуска: 2013

В ролях: Сирша Ронан, Джордж МакКэй, Том Холлэнд, Харли Бёрд, Анна Чэнселлор, Сара Барнетт, Эми Доусон, Кори Джонсон, Наташа Йонас, Дэнни МакЭвой

Описание: Действие разворачивается в недалеком будущем. Пятнадцатилетняя Дэйзи приезжает из Нью-Йорка в Лондон к тете с дядей. И влюбляется без памяти в своего кузена Эдмонда. Но на пути первой любви встает внезапно разворачивающаяся Третья Мировая Война.

________________

Видео: 908x490 (1.85:1), 23,976 fps, AVC (H.264), High@L4.1 ~ 1682 Кbps, 0.158 bit/pixel
Аудио: 48 kHz, AC3 Dolby Digital, 3/2 (L,C,R,l,r) + LFE ch, ~384 kbps
 

Интересные факты
Фильм снят по мотивам романа Мэг Рософф «Как я теперь живу» (How I Live Now, 2004).

Прежде чем Джордж МакКэй получил роль Эдмонда, на его место успели попробоваться всего лишь около десяти человек, каждый из которых прослушивался в паре с Сиршей Ронан.

Для своей роли Сирша Ронан не красила волосы. Она носила парик.

Режиссер Кевин МакДональд первоначально собирался набрать для фильма малоизвестных актеров и на роль Дейзи искал 16-летнюю американскую девушку. Но в итоге роль досталась 19-летней ирландке Сирше Ронан, которая так прочла доставшуюся ей сцену на прослушивании, что вся комиссия плакала.

Внимание! Дальнейший список фактов о фильме содержит спойлеры. Будьте осторожны.

Человек, в которого стреляет Дейзи (Сирша Ронан), является реальным отцом актрисы Полом Ронаном.
MediaInfo
Общее
Уникальный идентификатор : 239722616809097261833569181062623704674 (0xB458E587F7B3CD35984070C9F914B662)
Полное имя : Kak.Ya.Teper'.Ljublju.2013.RUS.BDRip.x264.-HELLYWOOD.mkv
Формат : Matroska
Версия формата : Version 4 / Version 2
Размер файла : 1,46 Гбайт
Длительность : 1 ч. 41 м.
Общий поток : 2065 Кбит/сек
Название фильма : HELLYWOOD - rip by potroks
Дата кодирования : UTC 2014-05-14 10:10:51
Программа кодирования : mkvmerge v5.9.0 ('On The Loose') built on Dec 15 2012 16:39:58
Библиотека кодирования : libebml v1.3.0 + libmatroska v1.4.0

Видео
Идентификатор : 1
Формат : AVC
Формат/Информация : Advanced Video Кодек
Профиль формата : High@L4.1
Параметр CABAC формата : Да
Параметр ReFrames формата : 10 кадров
Идентификатор кодека : V_MPEG4/ISO/AVC
Длительность : 1 ч. 41 м.
Битрейт : 1682 Кбит/сек
Ширина : 908 пикселей
Высота : 490 пикселей
Соотношение сторон : 1,85:1
Режим частоты кадров : Постоянный
Частота кадров : 23,976 кадра/сек
Цветовое пространство : YUV
Субдискретизация насыщенности : 4:2:0
Битовая глубина : 8 бит
Тип развёртки : Прогрессивная
Бит/(Пиксели*Кадры) : 0.158
Размер потока : 1,16 Гбайт (79%)
Заголовок : How I Live Now
Библиотека кодирования : x264 core 130 r2273 b3065e6
Настройки программы : cabac=1 / ref=10 / deblock=1:-2:-2 / analyse=0x3:0x133 / me=umh / subme=11 / psy=1 / psy_rd=0.99:0.00 / mixed_ref=1 / me_range=48 / chroma_me=1 / trellis=2 / 8x8dct=1 / cqm=0 / deadzone=21,11 / fast_pskip=0 / chroma_qp_offset=-2 / threads=6 / lookahead_threads=6 / sliced_threads=0 / nr=0 / decimate=0 / interlaced=0 / bluray_compat=0 / constrained_intra=0 / bframes=11 / b_pyramid=2 / b_adapt=2 / b_bias=0 / direct=3 / weightb=1 / open_gop=0 / weightp=2 / keyint=250 / keyint_min=23 / scenecut=40 / intra_refresh=0 / rc_lookahead=60 / rc=2pass / mbtree=0 / bitrate=1682 / ratetol=1.0 / qcomp=0.70 / qpmin=0 / qpmax=69 / qpstep=4 / cplxblur=20.0 / qblur=0.5 / vbv_maxrate=20000 / vbv_bufsize=25000 / nal_hrd=none / ip_ratio=1.30 / pb_ratio=1.25 / aq=1:0.90
Язык : English
Default : Да
Forced : Нет

Аудио
Идентификатор : 2
Формат : AC-3
Формат/Информация : Audio Coding 3
Расширение режима : CM (complete main)
Параметр Endianness формата : Big
Идентификатор кодека : A_AC3
Длительность : 1 ч. 41 м.
Вид битрейта : Постоянный
Битрейт : 384 Кбит/сек
Каналы : 6 каналов
Расположение каналов : Front: L C R, Side: L R, LFE
Частота : 48,0 КГц
Битовая глубина : 16 бит
Метод сжатия : С потерями
Размер потока : 278 Мбайт (19%)
Заголовок : MVO | DD 5.1 @ 384 kbps - R5
Язык : Russian
Default : Да
Forced : Нет

Текст #1
Идентификатор : 3
Формат : UTF-8
Идентификатор кодека : S_TEXT/UTF8
Идентификатор кодека/Информация : UTF-8 Plain Text
Язык : Russian
Default : Нет
Forced : Нет

Текст #2
Идентификатор : 4
Формат : UTF-8
Идентификатор кодека : S_TEXT/UTF8
Идентификатор кодека/Информация : UTF-8 Plain Text
Заголовок : Full
Язык : English
Default : Нет
Forced : Нет

Текст #3
Идентификатор : 5
Формат : UTF-8
Идентификатор кодека : S_TEXT/UTF8
Идентификатор кодека/Информация : UTF-8 Plain Text
Заголовок : SDH
Язык : English
Default : Нет
Forced : Нет

Меню
00:00:00.000 : en:(01)00:00:00:000
00:09:35.783 : en:(02)00:09:35:783
00:15:08.991 : en:(03)00:15:08:991
00:23:33.412 : en:(04)00:23:33:412
00:34:03.958 : en:(05)00:34:03:958
00:39:59.730 : en:(06)00:39:59:730
00:49:25.504 : en:(07)00:49:25:504
00:57:39.539 : en:(08)00:57:39:539
01:03:09.952 : en:(09)01:03:09:952
01:13:23.565 : en:(10)01:13:23:565
01:25:49.310 : en:(11)01:25:49:310
01:38:27.401 : en:(12)01:38:27:401
01:41:12.024 : en:(13)01:41:12:024

Статистика торрента
Раздают: 182 Качают: 5 Размер: 1.46GB Скачали: 12
Имя файла: 38181_Kak.Ya.Teper-Lj.torrent
Похожие торренты
Отзывы пользователей
Добавить отзыв