1.46GB / Я не вернусь (Ильмар Рааг) [2014, драма, WEBRip]

Категория: фильмы » Драмы
рейтинг из 5
  • Добавил: zlidny
  • Дата: 17/10/14, 11:02:12
  • Просмотры: 278
  • Отзывы: 0
?????
Название игры:
Год выхода игры:
Жанр игры: Драмы

Формат: WEBRip, AVI, XviD, АС3
Режиссер: Ильмар Рааг
Жанр: драма
Выпущено: Россия, Казахстан, Эстония, Финляндия, Беларусь
Продолжительность: 01:45:05
Год выпуска: 2014
В ролях: Полина Пушкарук, Вика Лобачева, Андрей Астраханцев, Сергей Яценюк, Ольга Белинская, Алла Еминцева, Саша Лесникова, Юрий Орлов, Галина Мочалова, Татьяна Зыкова
Описание:
Аня — красивая успешная девушка, учится в аспирантуре, читает лекции по Байрону, и у нее роман с профессором, но в один момент ее жизнь переворачивается, и чтобы избежать ложного обвинения, она убегает, прикинувшись подростком-беспризорником. Маска тинэйджера и знакомство с такой же отчаянной, но действительно маленькой Кристиной обращает бегство девушки в новый путь: заново пережив отрочество, Аня начисто переписывает свою жизнь.



Видео: 720x304 (2.35:1), 25 fps, XviD MPEG-4 ~1786 kbps avg, 0.326 bit/pixel
Аудио: 48 kHz, АС3, 2 ch, Front: L R ~192.00 kbps avg
 

MI
Общее
Полное имя : C:\Users\Admin\Downloads\Ya_He_Bepnyc.WEBRip.avi
Формат : AVI
Формат/Информация : Audio Video Interleave
Размер файла : 1,46 Гбайт
Продолжительность : 1 ч. 45 м.
Общий поток : 1988 Кбит/сек
Программа кодирования : VirtualDubMod 1.5.10.3 | www.virtualdub-fr.org || (build 2550/release)
Библиотека кодирования : VirtualDubMod build 2550/release

Видео
Идентификатор : 0
Формат : MPEG-4 Visual
Профиль формата : Advanced Simple@L5
Параметр BVOP формата : 2
Параметр QPel формата : Нет
Параметр GMC формата : Без точки перехода
Параметр матрицы формата : Default (MPEG)
Идентификатор кодека : XVID
Идентификатор кодека/Подсказка : XviD
Продолжительность : 1 ч. 45 м.
Битрейт : 1786 Кбит/сек
Ширина : 720 пикселей
Высота : 304 пикселя
Соотношение сторон : 2,35:1
Частота кадров : 25,000 кадров/сек
Цветовое пространство : YUV
Субдискретизация насыщенности : 4:2:0
Битовая глубина : 8 бит
Тип развёртки : Прогрессивная
Метод сжатия : С потерями
Бит/(Пиксели*Кадры) : 0.326
Размер потока : 1,31 Гбайт (90%)
Библиотека кодирования : XviD 1.2.1 (UTC 2008-12-04)

Аудио
Идентификатор : 1
Формат : AC-3
Формат/Информация : Audio Coding 3
Расширение режима : CM (complete main)
Параметр Endianness формата : Big
Идентификатор кодека : 2000
Продолжительность : 1 ч. 45 м.
Вид битрейта : Постоянный
Битрейт : 192 Кбит/сек
Каналы : 2 канала
Расположение каналов : Front: L R
Частота : 48,0 КГц
Битовая глубина : 16 бит
Метод сжатия : С потерями
Размер потока : 144 Мбайт (10%)
Выравнивание : Разделение по промежуткам
Продолжительность промежутка : 40 мс. (1,00 видеокадр)
Время предзагрузки промежутка : 500 мс.

скриншоты







Статистика торрента
Раздают: 151 Качают: 194 Размер: 1.46GB Скачали: 12
Имя файла: 38584_Ya_He_Bepnyc.WE.torrent
Похожие торренты
Отзывы пользователей
Добавить отзыв