1.45GB / Посвященный / The Giver (Филлип Нойс ) [2014, фантастика, драма, WEB-DLRip-AVC]

Категория: фильмы » Драмы
рейтинг из 5
  • Добавил: zlidny
  • Дата: 23/09/14, 19:16:37
  • Просмотры: 268
  • Отзывы: 0
?????
Название игры:
Год выхода игры:
Жанр игры: Фантастика, Драмы

Перевод: Профессиональный (полное дублирование) iTunes
Субтитры: Отсутствуют
Формат: WEB-DLRip-AVC, MKV, H.264, AC3
Страна: США
Режиссер: Филлип Нойс
Жанр: фантастика, драма
Продолжительность: 01:37:12
Год выпуска: 2014

В ролях: Брентон Туэйтс, Джефф Бриджес, Мэрил Стрип, Одейя Раш, Кэти Холмс, Александр Скарсгард, Камерон Монахэн, Тейлор Свифт, Александр Джиллингс, Джеймс Джиллингс

Описание: Юный Джонас живет в идеальном, максимально цивилизованном обществе будущего, где больше нет войн, боли, страданий, радости, воспоминаний. Для каждого члена здесь определен идеальный порядок существования, и теперь никому не приходится выбирать шаг, мысль, цвет — все вокруг однозначно серое… По решению Совета общества Джонас назначается Хранителем памяти, которую он должен перенять у Учителя по имени Дающий. Юноше открывается правда о настоящем мире, но чтобы освободить свой мир, он должен бросить ему вызов…



Видео: 1024x432 (2.35:1), 24 fps, AVC MPEG-4 (H.264), High@L4.1 ~1749 kbps, 0.165 bit/pixel
Аудио: 48 kHz, AC3 Dolby Digital, 3/2 (L,C,R,l,r) + LFE ch, ~384 kbps
 

Отчет MediaInfo
Общее
Уникальный идентификатор : 176536927272446922229551199402947406035 (0x84CFC6840C9BF139A4144C2B0BCA68D3)
Полное имя : C:\Posvyashennyj 2014 WEB-DLRip AVC.mkv
Формат : Matroska
Версия формата : Version 4 / Version 2
Размер файла : 1,45 Гбайт
Продолжительность : 1 ч. 37 м.
Общий поток : 2135 Кбит/сек
Программа кодирования : mkvmerge v7.1.0 ('Good Love') 64bit built on Jul 27 2014 13:06:55
Библиотека кодирования : libebml v1.3.0 + libmatroska v1.4.1

Видео
Идентификатор : 1
Формат : AVC
Формат/Информация : Advanced Video Codec
Профиль формата : High@L4.1
Параметр CABAC формата : Да
Параметр ReFrames формата : 10 кадров
Идентификатор кодека : V_MPEG4/ISO/AVC
Продолжительность : 1 ч. 37 м.
Битрейт : 1749 Кбит/сек
Ширина : 1024 пикселя
Высота : 432 пикселя
Соотношение сторон : 2,35:1
Частота кадров : 24,000 кадра/сек
Цветовое пространство : YUV
Субдискретизация насыщенности : 4:2:0
Битовая глубина : 8 бит
Тип развёртки : Прогрессивная
Бит/(Пиксели*Кадры) : 0.165
Размер потока : 1,16 Гбайт (80%)
Библиотека кодирования : x264 core 133 r2334 a3ac64b
Настройки программы : cabac=1 / ref=10 / deblock=1:-3:-3 / analyse=0x3:0x133 / me=umh / subme=11 / psy=1 / psy_rd=1.00:0.10 / mixed_ref=1 / me_range=48 / chroma_me=1 / trellis=2 / 8x8dct=1 / cqm=0 / deadzone=21,11 / fast_pskip=0 / chroma_qp_offset=0 / threads=12 / lookahead_threads=2 / sliced_threads=0 / nr=0 / decimate=1 / interlaced=0 / bluray_compat=0 / constrained_intra=0 / bframes=9 / b_pyramid=2 / b_adapt=2 / b_bias=0 / direct=3 / weightb=1 / open_gop=1 / weightp=2 / keyint=250 / keyint_min=23 / scenecut=40 / intra_refresh=0 / rc=2pass / mbtree=0 / bitrate=1749 / ratetol=1.0 / qcomp=0.60 / qpmin=0 / qpmax=69 / qpstep=4 / cplxblur=20.0 / qblur=0.5 / ip_ratio=1.40 / pb_ratio=1.30 / aq=1:1.00
Язык : English
Default : Да
Forced : Нет
Основные цвета : BT.709-5, BT.1361, IEC 61966-2-4, SMPTE RP177

Аудио
Идентификатор : 2
Формат : AC-3
Формат/Информация : Audio Coding 3
Расширение режима : CM (complete main)
Идентификатор кодека : A_AC3
Продолжительность : 1 ч. 37 м.
Вид битрейта : Постоянный
Битрейт : 384 Кбит/сек
Каналы : 6 каналов
Расположение каналов : Front: L C R, Side: L R, LFE
Частота : 48,0 КГц
Битовая глубина : 16 бит
Метод сжатия : С потерями
Размер потока : 267 Мбайт (18%)
Заголовок : Дублированный (iTunes Russia)
Язык : Russian
Default : Да
Forced : Нет

Меню
00:00:00.000 : en:Chapter 01
00:06:46.000 : en:Chapter 02
00:12:35.000 : en:Chapter 03
00:19:28.000 : en:Chapter 04
00:26:11.000 : en:Chapter 05
00:30:39.000 : en:Chapter 06
00:36:25.000 : en:Chapter 07
00:41:22.000 : en:Chapter 08
00:46:28.000 : en:Chapter 09
00:51:19.000 : en:Chapter 10
00:56:19.000 : en:Chapter 11
01:01:07.000 : en:Chapter 12
01:06:51.000 : en:Chapter 13
01:12:23.000 : en:Chapter 14
01:18:03.000 : en:Chapter 15
01:23:11.000 : en:Chapter 16

Статистика торрента
Раздают: 340 Качают: 181 Размер: 1.45GB Скачали: 12
Имя файла: 37793_Posvyashennyj_2.torrent
Похожие торренты
Отзывы пользователей
Добавить отзыв