1.39GB / Байконур (Файт Хелмер) [2011, драма, HDTVRip-AVC]

Категория: фильмы » Драмы
рейтинг из 5
  • Добавил: zlidny
  • Дата: 20/07/14, 11:11:00
  • Просмотры: 182
  • Отзывы: 0
?????
Название игры:
Год выхода игры:
Жанр игры: Драмы

Формат: HDTVRip-AVC, MKV, H.264, AC3
Страна: Россия, Германия, Казахстан, Кинокомпания CTB
Режиссер: Файт Хелмер
Жанр: драма
Продолжительность: 01:31:01
Год выпуска: 2011
В ролях: Александр Асохаков , Мари де Вильпен, Ситора Фармонова, Валера Канищев, Ерболат Тогузаков
Описание:
Искандер по прозвищу Гагарин живет в деревне Кунгей возле космодрома. Жизнь жителей деревни размеренно течет от одного взлёта ракеты к следующему. Пока однажды с неба не падает прекрасная космическая туристка Джули. Жизнь Гагарина перевернулась. Он влюблен без пямяти и готов ради Джули на все — отдать ей свадебное платье матери, поставить в юрте ванную и даже уйти из деревни. Сможет ли француженка оценить его жертвы, если она потеряла память и теперь отзывается на казахское имя Кокетай?



Видео: 1024x552 (1.85:1), 25 fps, AVC (х.264) High@L4.1 ~1830 kbps avg, 0.130 bit/pixel
Аудио: 48 kHz, АС3, 6 ch, Front: L C R, Side: L R, LFE ~384.00 kbps avg
 

MI
Общее
Полное имя : Bajkonur.2011.x264.HDTVRip(AVC).MediaClub.mkv
Формат : Matroska
Версия формата : Version 2
Размер файла : 1,39 Гбайт
Продолжительность : 1 ч. 31 м.
Общий поток : 2186 Кбит/сек
Дата кодирования : UTC 2013-12-19 18:21:53
Программа кодирования : mkvmerge v5.4.0 ('Piper') built on Mar 10 2012 13:34:39
Библиотека кодирования : libebml v1.2.3 + libmatroska v1.3.0

Видео
Идентификатор : 1
Формат : AVC
Формат/Информация : Advanced Video Codec
Профиль формата : High@L4.1
Параметр CABAC формата : Да
Параметр ReFrames формата : 9 кадров
Идентификатор кодека : V_MPEG4/ISO/AVC
Продолжительность : 1 ч. 31 м.
Битрейт : 1830 Кбит/сек
Ширина : 1024 пикселя
Высота : 552 пикселя
Соотношение сторон : 1,85:1
Режим частоты кадров : Постоянный
Частота кадров : 25,000 кадров/сек
Цветовое пространство : YUV
Субдискретизация насыщенности : 4:2:0
Битовая глубина : 8 бит
Тип развёртки : Прогрессивная
Бит/(Пиксели*Кадры) : 0.130
Размер потока : 1,12 Гбайт (80%)
Библиотека кодирования : x264 core 125 r2208 d9d2288
Настройки программы : cabac=1 / ref=9 / deblock=1:-2:-2 / analyse=0x3:0x133 / me=umh / subme=10 / psy=1 / psy_rd=1.00:0.15 / mixed_ref=1 / me_range=32 / chroma_me=1 / trellis=2 / 8x8dct=1 / cqm=0 / deadzone=21,11 / fast_pskip=0 / chroma_qp_offset=-3 / threads=6 / lookahead_threads=1 / sliced_threads=0 / nr=0 / decimate=0 / interlaced=0 / bluray_compat=0 / constrained_intra=0 / bframes=8 / b_pyramid=2 / b_adapt=2 / b_bias=0 / direct=3 / weightb=1 / open_gop=0 / weightp=2 / keyint=250 / keyint_min=25 / scenecut=40 / intra_refresh=0 / rc=2pass / mbtree=0 / bitrate=1830 / ratetol=1.0 / qcomp=0.60 / qpmin=0 / qpmax=69 / qpstep=4 / cplxblur=20.0 / qblur=0.5 / ip_ratio=1.40 / pb_ratio=1.30 / aq=1:0.80
Язык : English
Default : Да
Forced : Нет

Аудио
Идентификатор : 2
Формат : AC-3
Формат/Информация : Audio Coding 3
Расширение режима : CM (complete main)
Параметр Endianness формата : Big
Идентификатор кодека : A_AC3
Продолжительность : 1 ч. 31 м.
Вид битрейта : Постоянный
Битрейт : 384 Кбит/сек
Каналы : 6 каналов
Расположение каналов : Front: L C R, Side: L R, LFE
Частота : 48,0 КГц
Битовая глубина : 16 бит
Метод сжатия : С потерями
Задержка видео : 2 с. 500 мс.
Размер потока : 250 Мбайт (18%)
Язык : Russian
Default : Да
Forced : Нет

скриншоты





Статистика торрента
Раздают: 24 Качают: 79 Размер: 1.39GB Скачали: 12
Имя файла: 36090_Bajkonur.2011.x.torrent
Похожие торренты
Отзывы пользователей
Добавить отзыв