1.38GB / Лок / Locke (Стивен Найт) [2013, триллер, драма, BDRip-AVC]

Категория: фильмы » Драмы
рейтинг из 5
  • Добавил: zlidny
  • Дата: 08/08/14, 08:05:53
  • Просмотры: 210
  • Отзывы: 0
?????
Название игры:
Год выхода игры:
Жанр игры: Триллеры, Драмы

Перевод: Профессиональный (многоголосый, закадровый) Baibako, субтитры : русские, английские
Формат: BDRip-AVC, MKV, H.264, AC3
Страна: Великобритания, США
Режиссер: Стивен Найт
Жанр: триллер, драма
Продолжительность: 01:24:49
Год выпуска: 2013

В ролях: Том Харди, Оливия Колман, Рут Уилсон, Эндрю Скотт, Бен Дэниелс, Том Холлэнд, Билл Милнер, Дэниэл Уэбб, Элис Лоу, Сайлас Карсон

Описание: Иван Лок живет размеренной жизнью и очень много работает, чтобы добиться успеха. Завтрашний день — один из важнейших в его жизни, его ждет карьерный рост. Но вечером раздается телефонный звонок, который перевернет его жизнь с ног на голову. Теперь, чтобы выжить, ему предстоит выиграть схватку со временем. У него есть всего 90 минут.



Видео: 1024x426 (2.40:1), 23.976 fps, AVC (H.264), High@L4.1 ~1500 kbps, 0.143 bit/pixel
Аудио #1: Русский: 48 kHz, AC3 Dolby Digital, 3/2 (L,C,R,l,r) + LFE ch, ~384 kbps [Профессиональный (многоголосый, закадровый)]
Аудио #2: Английский: 48 kHz, AC3 Dolby Digital, 3/2 (L,C,R,l,r) + LFE ch, ~448 kbps [Оригинал]

СЭМПЛ
 

Отчет MediaInfo
Общее
Уникальный идентификатор : 234024975040179325744248754443542126071 (0xB00F921A78EA8C0C9853B790E260DDF7)
Полное имя : D:Mои раздачиLocke.2013.BDRip.(AVC)-MediaClub.mkv
Формат : Matroska
Версия формата : Version 4 / Version 2
Размер файла : 1,38 Гбайт
Продолжительность : 1 ч. 24 м.
Общий поток : 2334 Кбит/сек
Название фильма : -=MediaClub-kaspr=-
Дата кодирования : UTC 2014-08-05 14:01:06
Программа кодирования : mkvmerge v6.9.1 ('Blue Panther') 64bit built on Apr 18 2014 18:23:38
Библиотека кодирования : libebml v1.3.0 + libmatroska v1.4.1

Видео
Идентификатор : 1
Формат : AVC
Формат/Информация : Advanced Video Codec
Профиль формата : High@L4.1
Параметр CABAC формата : Да
Параметр ReFrames формата : 10 кадров
Идентификатор кодека : V_MPEG4/ISO/AVC
Продолжительность : 1 ч. 24 м.
Битрейт : 1500 Кбит/сек
Ширина : 1024 пикселя
Высота : 426 пикселей
Соотношение сторон : 2,40:1
Режим частоты кадров : Постоянный
Частота кадров : 23,976 кадра/сек
Цветовое пространство : YUV
Субдискретизация насыщенности : 4:2:0
Битовая глубина : 8 бит
Тип развёртки : Прогрессивная
Бит/(Пиксели*Кадры) : 0.143
Размер потока : 883 Мбайт (62%)
Заголовок : -=MediaClub-kaspr=-
Библиотека кодирования : x264 core 142 r2431+42 c69a006 tMod [8-bit@4:2:0 X86_64]
Настройки программы : cabac=1 / ref=10 / deblock=1:-3:-3 / analyse=0x3:0x113 / me=umh / subme=11 / psy=1 / fade_compensate=0.00 / psy_rd=1.00:0.20 / mixed_ref=1 / me_range=32 / chroma_me=1 / trellis=2 / 8x8dct=1 / cqm=0 / deadzone=21,11 / fast_pskip=0 / chroma_qp_offset=-3 / threads=12 / lookahead_threads=3 / sliced_threads=0 / nr=0 / decimate=0 / interlaced=0 / bluray_compat=0 / constrained_intra=0 / fgo=0 / bframes=14 / b_pyramid=2 / b_adapt=2 / b_bias=0 / direct=3 / weightb=1 / open_gop=0 / weightp=2 / keyint=240 / keyint_min=23 / scenecut=40 / intra_refresh=0 / rc=2pass / mbtree=0 / bitrate=1500 / ratetol=1.0 / qcomp=0.60 / qpmin=0:0:0 / qpmax=69:69:69 / qpstep=4 / cplxblur=20.0 / qblur=0.5 / ip_ratio=1.40 / pb_ratio=1.30 / aq=4:0.80 / aq-sensitivity=10.00 / aq-factor=1.00:1.00:1.00 / aq2=0 / aq3=0
Default : Да
Forced : Нет

Аудио #1
Идентификатор : 2
Формат : AC-3
Формат/Информация : Audio Coding 3
Расширение режима : CM (complete main)
Параметр Endianness формата : Big
Идентификатор кодека : A_AC3
Продолжительность : 1 ч. 24 м.
Вид битрейта : Постоянный
Битрейт : 384 Кбит/сек
Каналы : 6 каналов
Расположение каналов : Front: L C R, Side: L R, LFE
Частота : 48,0 КГц
Битовая глубина : 16 бит
Метод сжатия : С потерями
Размер потока : 233 Мбайт (16%)
Заголовок : MVO (Baibako)
Язык : Russian
Default : Да
Forced : Нет

Аудио #2
Идентификатор : 3
Формат : AC-3
Формат/Информация : Audio Coding 3
Расширение режима : CM (complete main)
Параметр Endianness формата : Big
Идентификатор кодека : A_AC3
Продолжительность : 1 ч. 24 м.
Вид битрейта : Постоянный
Битрейт : 448 Кбит/сек
Каналы : 6 каналов
Расположение каналов : Front: L C R, Side: L R, LFE
Частота : 48,0 КГц
Битовая глубина : 16 бит
Метод сжатия : С потерями
Размер потока : 272 Мбайт (19%)
Язык : English
Default : Нет
Forced : Нет

Текст #1
Идентификатор : 4
Формат : UTF-8
Идентификатор кодека : S_TEXT/UTF8
Идентификатор кодека/Информация : UTF-8 Plain Text
Язык : Russian
Default : Нет
Forced : Нет

Текст #2
Идентификатор : 5
Формат : UTF-8
Идентификатор кодека : S_TEXT/UTF8
Идентификатор кодека/Информация : UTF-8 Plain Text
Заголовок : Full
Язык : English
Default : Нет
Forced : Нет

Текст #3
Идентификатор : 6
Формат : UTF-8
Идентификатор кодека : S_TEXT/UTF8
Идентификатор кодека/Информация : UTF-8 Plain Text
Заголовок : SDH
Язык : English
Default : Нет
Forced : Нет

Текст #4
Идентификатор : 7
Формат : UTF-8
Идентификатор кодека : S_TEXT/UTF8
Идентификатор кодека/Информация : UTF-8 Plain Text
Заголовок : Colored
Язык : English
Default : Нет
Forced : Нет

Меню
00:00:00.000 : en:Chapter 01
00:03:38.468 : en:Chapter 03
00:09:22.728 : en:Chapter 05
00:15:00.983 : en:Chapter 07
00:21:20.529 : en:Chapter 09
00:26:00.225 : en:Chapter 11
00:30:32.038 : en:Chapter 13
00:37:23.866 : en:Chapter 15
00:43:03.539 : en:Chapter 17
00:49:57.411 : en:Chapter 19
00:56:08.406 : en:Chapter 21
00:59:37.532 : en:Chapter 23
01:04:29.657 : en:Chapter 25
01:10:05.659 : en:Chapter 27
01:15:32.152 : en:Chapter 29
01:18:31.039 : en:Chapter 31

Статистика торрента
Раздают: 201 Качают: 80 Размер: 1.38GB Скачали: 14
Имя файла: 36718_Locke.2013.BDRi.torrent
Похожие торренты
Отзывы пользователей
Добавить отзыв