15.81GB / Доминион / Dominion [S01] (2014) WEB-DLRip 1080p | LostFilm

Категория: фильмы » Драмы
рейтинг из 5
  • Добавил: zlidny
  • Дата: 12/08/14, 12:21:54
  • Просмотры: 268
  • Отзывы: 0
?????
Название игры:
Год выхода игры:
Жанр игры: Фентези, Драмы

Название: Доминион
Оригинальное название: Dominion
Год выхода: 2014
Жанр: фэнтези, драма, экшен
Режиссер: Скотт Чарльз Стюарт
В ролях: Кристофер Иган (Алекс Лэннен), Том Уисдом (архангел Михаил), Карл Бьюкс (архангел Гавриил), Алан Дэйл (генерал Ризен), Энтони Хэд (Дэвид Уил), Роксанна МакКи (Клэр Ризен).

О фильме:
Через 25 лет после того, как разъяренные ангелы сошли с небес на землю, чтобы пустить в расход все человеческие души, единственным оплотом спасшихся стал город Вега — бывший Лас-Вегас. А единственным защитником человечества неожиданно оказался архангел Михаил (Том Уисдом), вынужденный пойти против своих. Однако неизвестно, что страшнее и опасней для людей — разбушевавшиеся ангелы или правящая элита города, плетущая хитрый заговор с целью захватить власть в новом мире.


Официальный сайт

Страна: США
Студия: SyFy
Продолжительность: 01:06:00 серия
Перевод: Профессиональный (многоголосый, закадровый) - LostFilm

Файл
Качество: WEB-DLRip 1080p
Видео: MPEG-4 AVC, 5242 kbps, 1920x1080 (16:9)
Аудио RU: AC3, 2 ch, 384 kbps
Аудио EN: AC3, 2 ch, 384 kbps
Субтитры: Отсутствуют
 

MI
Общее
Уникальный идентификатор : 242382163414775465080616745537575751497 (0xB6591B4D73F205F7BED0536E82E28F49)
Полное имя : D:готово с торрентаДоминионДоминион 1 серия 1080p LostFilm от Havoler.mkv
Формат : Matroska
Версия формата : Version 2
Размер файла : 2,78 Гбайт
Продолжительность : 1 ч. 6 м.
Общий поток : 6011 Кбит/сек
Дата кодирования : UTC 2014-06-23 18:39:20
Программа кодирования : mkvmerge v4.2.0 ('No Talking') сборка от Jul 28 2010 18:38:23
Библиотека кодирования : libebml v1.0.0 + libmatroska v1.0.0

Видео
Идентификатор : 1
Формат : AVC
Формат/Информация : Advanced Video Codec
Профиль формата : High@L4.0
Параметр CABAC формата : Да
Параметр ReFrames формата : 2 кадра
Идентификатор кодека : V_MPEG4/ISO/AVC
Продолжительность : 1 ч. 6 м.
Битрейт : 5242 Кбит/сек
Ширина : 1920 пикселей
Высота : 1080 пикселей
Соотношение сторон : 16:9
Режим частоты кадров : Постоянный
Частота кадров : 23,976 кадра/сек
Цветовое пространство : YUV
Субдискретизация насыщенности : 4:2:0
Битовая глубина : 8 бит
Тип развёртки : Прогрессивная
Бит/(Пиксели*Кадры) : 0.105
Размер потока : 2,37 Гбайт (85%)
Библиотека кодирования : x264 core 112 r1834 a51816a
Настройки программы : cabac=1 / ref=1 / deblock=1:0:0 / analyse=0x3:0x133 / me=umh / subme=7 / psy=1 / psy_rd=1.00:0.00 / mixed_ref=0 / me_range=16 / chroma_me=1 / trellis=1 / 8x8dct=1 / cqm=0 / deadzone=21,11 / fast_pskip=1 / chroma_qp_offset=-2 / threads=6 / sliced_threads=0 / nr=0 / decimate=1 / interlaced=0 / constrained_intra=0 / bframes=5 / b_pyramid=0 / b_adapt=1 / b_bias=0 / direct=3 / weightb=1 / open_gop=0 / weightp=2 / keyint=250 / keyint_min=25 / scenecut=40 / intra_refresh=0 / rc_lookahead=40 / rc=2pass / mbtree=1 / bitrate=5242 / ratetol=1.0 / qcomp=0.60 / qpmin=0 / qpmax=51 / qpstep=4 / cplxblur=20.0 / qblur=0.5 / ip_ratio=1.40 / aq=1:1.00
Default : Да
Forced : Нет

Аудио #1
Идентификатор : 2
Формат : AC-3
Формат/Информация : Audio Coding 3
Расширение режима : CM (complete main)
Параметр Endianness формата : Big
Идентификатор кодека : A_AC3
Продолжительность : 1 ч. 6 м.
Вид битрейта : Постоянный
Битрейт : 384 Кбит/сек
Каналы : 2 канала
Расположение каналов : Front: L R
Частота : 48,0 КГц
Битовая глубина : 16 бит
Метод сжатия : С потерями
Размер потока : 182 Мбайт (6%)
Default : Да
Forced : Нет

Аудио #2
Идентификатор : 3
Формат : AC-3
Формат/Информация : Audio Coding 3
Расширение режима : CM (complete main)
Параметр Endianness формата : Big
Идентификатор кодека : A_AC3
Продолжительность : 1 ч. 6 м.
Вид битрейта : Постоянный
Битрейт : 384 Кбит/сек
Каналы : 2 канала
Расположение каналов : Front: L R
Частота : 48,0 КГц
Битовая глубина : 16 бит
Метод сжатия : С потерями
Размер потока : 182 Мбайт (6%)
Default : Нет
Forced : Нет

 

Скриншоты

Статистика торрента
Раздают: 383 Качают: 167 Размер: 15.81GB Скачали: 23
Имя файла: 36912_-rutor.org-Domi.torrent
Похожие торренты
Отзывы пользователей
Добавить отзыв