4.6GB / Топ Гир, 21 сезон 1-7 эпизоды из 7 / Top Gear (Брайан Клейн, Фил Чурчуорд, Найджел Симпкисс) [2014, авто-шоу, документальный, ток-шо

рейтинг из 5
  • Добавил: zlidny
  • Дата: 23/08/14, 09:18:34
  • Просмотры: 306
  • Отзывы: 0
?????
Название игры:
Год выхода игры:
Жанр игры: Документальные

Перевод: Профессиональный (многоголосый, закадровый) [AlexFilm] [IdeaFilm]
Субтитры: Отсутствуют
Формат: HDTVRip, AVI, XviD, MP3
Страна: Великобритания
Режиссер: Брайан Клейн, Фил Чурчуорд, Найджел Симпкисс
Жанр: авто-шоу,документальный, ток-шоу, комедия
Продолжительность: 7 х ~01:02:00
Год выпуска: 2014

В ролях: Ричард Хаммонд / Richard Hammond (играет самого себя - Presenter), Джереми Кларксон / Jeremy Clarkson (играет самого себя - Presenter), Джеймс Мэй / James May (играет самого себя - Presenter)

Описание: Джереми, Ричард и Джеймс с неподражаемым юмором рассказывают о самых значимых и интересных новинках автомобильного мира.

Рейтинг:

Рейтинг MPAA:

Видео: 624x352 (16:9), 25 fps, XviD MPEG-4 ~1071 kbps avg, 0.195 bit/pixel
Аудио #1 (AlexFilm): 48 kHz, MPEG Layer 3, 2 ch, ~128.00 kbps avg
Аудио #2 (IdeaFilm): 48 kHz, MPEG Layer 3, 2 ch, ~128.00 kbps avg
Аудио #3 (ENG): 48 kHz, MPEG Layer 3, 2 ch, ~128.00 kbps avg

Содержание
Эпизод #1
Дата эфира: 02.02.2014
Продолжительность: 01:02:00
Размер файла: 653 Мб
Описание:
Ведущие покупают хэтчбеки 80-х годов в надежде доказать их превосходство перед современными аналогами.
Знаменитость в бюджетном авто: Хью Бонневилль, британский актер.
Эпизод #2
Дата эфира: 09.02.2014
Продолжительность: 01:02:17
Размер файла: 658 Мб
Описание:
Джереми Кларксон тестирует гибридный суперкар от McLaren, Ричард Хаммонд на берегу озера Комо в новой Alfa Romeo 4C и Джеймс Мэй посетил лагерь Бастион в Афганистане
Знаменитость в бюджетном авто: Том Хиддлстон, британский актер (Мсти́тели).
Эпизод #3
Дата эфира: 16.02.2014
Продолжительность: 01:03:02
Размер файла: 669 Мб
Описание:
Джереми Кларксон, Ричард Хаммонд и Джеймс Мэй показывают свою любовь к компактным, малолитражным автомобилям и отправляются на Украину (Volkswagen Up, Ford Fiesta и Dacia Sandero).
Знаменитость в бюджетном авто: Джеймс Блант, английский певец, музыкант и автор.
Эпизод #4
Дата эфира: 23.02.2014
Продолжительность: 01:02:31
Размер файла: 658 Мб
Описание:
Джереми Кларксон тестирует невероятный Alfa Romeo Disco Volante Touring. Ричард Хаммонд на новом G63 6x6. Джеймс Мэй на Caterham 620R и Catherham 160
Знаменитость в бюджетном авто: Джек Уайтхолл, британский комик, телеведущий и актер.
Эпизод #5
Дата эфира: 02.03.2014
Продолжительность: 01:03:01
Размер файла: 658 Мб
Описание:
Ричард Хаммонд в Абу-Даби тестирует новый гибридный гиперкар Porsche 918. Джереми Кларксон и Джеймс Мэй снимают фильм для пропаганды велосипедных прогулок.
Знаменитость в бюджетном авто: Аарон Пол, актёр, лауреат премии «Эмми» (Во все тяжкие).
Эпизод #6
Дата эфира: 09.03.2014
Продолжительность: 01:03:04
Размер файла: 720 Мб
Описание:
Команда Top Gear отправляется в Бирму на трех поддержанных грузовиках купленных в интернете.
Эпизод #7
Дата эфира: 16.03.2014
Продолжительность: 01:02:21
Размер файла: 653 Мб
Описание:
Команда Top Gear приезжает к реке "Квай" и начинает строительство моста через реку "Кок".
MediaInfo
General
Общее
Полное имя : E:\Top Gear 21\1.avi
Формат : AVI
Формат/Информация : Audio Video Interleave
Размер файла : 654 Мбайт
Продолжительность : 1 ч. 1 м.
Общий поток : 1475 Кбит/сек
Программа кодирования : VirtualDubMod 1.5.10.3 | www.virtualdub-fr.org || (build 2550/release)
Библиотека кодирования : VirtualDubMod build 2550/release
Видео
Идентификатор : 0
Формат : MPEG-4 Visual
Профиль формата : Advanced Simple@L5
Параметр BVOP формата : 1
Параметр QPel формата : Нет
Параметр GMC формата : Без точки перехода
Параметр матрицы формата : Выборочная
Идентификатор кодека : XVID
Идентификатор кодека/Подсказка : XviD
Продолжительность : 1 ч. 1 м.
Битрейт : 1071 Кбит/сек
Ширина : 624 пикселя
Высота : 352 пикселя
Соотношение сторон : 16:9
Частота кадров : 25,000 кадров/сек
Цветовое пространство : YUV
Субдискретизация насыщенности : 4:2:0
Битовая глубина : 8 бит
Тип развёртки : Прогрессивная
Метод сжатия : С потерями
Бит/(Пиксели*Кадры) : 0.195
Размер потока : 475 Мбайт (73%)
Библиотека кодирования : XviD 73
Аудио #1
Идентификатор : 1
Формат : MPEG Audio
Версия формата : Version 1
Профиль формата : Layer 3
Идентификатор кодека : 55
Идентификатор кодека/Подсказка : MP3
Продолжительность : 1 ч. 1 м.
Вид битрейта : Постоянный
Битрейт : 128 Кбит/сек
Каналы : 2 канала
Частота : 48,0 КГц
Метод сжатия : С потерями
Размер потока : 56,8 Мбайт (9%)
Выравнивание : Соединение по промежуткам
Продолжительность промежутка : 40 мс. (1,00 видеокадр)
Время предзагрузки промежутка : 504 мс.
Библиотека кодирования : LAME3.99r
Настройки программы : -m s -V 4 -q 2 -lowpass 17 -b 128
Аудио #2
Идентификатор : 2
Формат : MPEG Audio
Версия формата : Version 1
Профиль формата : Layer 3
Идентификатор кодека : 55
Идентификатор кодека/Подсказка : MP3
Продолжительность : 1 ч. 1 м.
Вид битрейта : Постоянный
Битрейт : 128 Кбит/сек
Каналы : 2 канала
Частота : 48,0 КГц
Метод сжатия : С потерями
Размер потока : 56,8 Мбайт (9%)
Выравнивание : Соединение по промежуткам
Продолжительность промежутка : 40 мс. (1,00 видеокадр)
Время предзагрузки промежутка : 504 мс.
Библиотека кодирования : LAME3.99rЄ
Аудио #3
Идентификатор : 3
Формат : MPEG Audio
Версия формата : Version 1
Профиль формата : Layer 3
Идентификатор кодека : 55
Идентификатор кодека/Подсказка : MP3
Продолжительность : 1 ч. 1 м.
Вид битрейта : Постоянный
Битрейт : 128 Кбит/сек
Каналы : 2 канала
Частота : 48,0 КГц
Метод сжатия : С потерями
Размер потока : 56,8 Мбайт (9%)
Выравнивание : Соединение по промежуткам
Продолжительность промежутка : 40 мс. (1,00 видеокадр)
Время предзагрузки промежутка : 504 мс.
Библиотека кодирования : LAME3.99r
Настройки программы : -m s -V 4 -q 2 -lowpass 17 -b 128

Статистика торрента
Раздают: 38 Качают: 136 Размер: 4.6GB Скачали: 21
Имя файла: 37173_Top_Gir_Top_Gea.torrent
Похожие торренты
Отзывы пользователей
Добавить отзыв