3.64GB / Медведи / Bears (2014) BDRip 720p

рейтинг из 5
  • Добавил: zlidny
  • Дата: 04/08/14, 11:30:44
  • Просмотры: 203
  • Отзывы: 0
?????
Название игры:
Год выхода игры:
Жанр игры: Документальные

Название: Медведи
Оригинальное название: Bears
Год выхода: 2014
Жанр: документальный
Режиссер: Аластер Фовергилл, Кит Шолей
В ролях: Джон Си Райли

О фильме: Документальная лента следует за семьёй медведей на Аляске по мере того, как растущие медвежата начинают постигать главные уроки жизни.



Выпущено: Disneynature
Продолжительность: 01:17:42
Перевод: Дублированный (лицензия)

Файл
Кодек: x264
Качество: BDRip (источник: Blu-ray Disc)
Видео: 1280x720 (16:9), 23.976 fps, 5420 kbps
Аудио #1: AC-3, 6 ch, 640 kbps (Rus)
Аудио #2: AC-3, 6 ch, 640 kbps (Eng)
Субтитры: Русские, Английские
Скачать: сэмпл

Скриншоты

MI
Общее
Уникальный идентификатор : 235126272827085144100960328320501240353 (0xB0E3AC46C722987B9E97CE2785495221)
Полное имя : Bears.2014.BDRip.720p.Rus.Eng.mkv
Формат : Matroska
Версия формата : Version 2
Размер файла : 3,64 Гбайт
Продолжительность : 1 ч. 17 м.
Общий поток : 6691 Кбит/сек
Название фильма : Медведи / Bears (2014)
Дата кодирования : UTC 2014-08-04 00:48:34
Программа кодирования : mkvmerge v5.8.0 ('No Sleep / Pillow') built on Sep 2 2012 15:37:04
Библиотека кодирования : libebml v1.2.3 + libmatroska v1.3.0

Видео
Идентификатор : 1
Формат : AVC
Формат/Информация : Advanced Video Codec
Профиль формата : High@L4.1
Параметр CABAC формата : Да
Параметр ReFrames формата : 7 кадров
Идентификатор кодека : V_MPEG4/ISO/AVC
Продолжительность : 1 ч. 17 м.
Битрейт : 5420 Кбит/сек
Ширина : 1280 пикселей
Высота : 720 пикселей
Соотношение сторон : 16:9
Режим частоты кадров : Постоянный
Частота кадров : 23,976 кадра/сек
Цветовое пространство : YUV
Субдискретизация насыщенности : 4:2:0
Битовая глубина : 8 бит
Тип развёртки : Прогрессивная
Бит/(Пиксели*Кадры) : 0.245
Размер потока : 2,87 Гбайт (79%)
Заголовок : Release by AlexKa
Библиотека кодирования : x264 core 142 r2453 ea0ca51
Настройки программы : cabac=1 / ref=7 / deblock=1:-3:-3 / analyse=0x3:0x133 / me=umh / subme=11 / psy=1 / psy_rd=1.00:0.00 / mixed_ref=1 / me_range=32 / chroma_me=1 / trellis=2 / 8x8dct=1 / cqm=0 / deadzone=21,11 / fast_pskip=0 / chroma_qp_offset=-2 / threads=12 / lookahead_threads=2 / sliced_threads=0 / nr=0 / decimate=1 / interlaced=0 / bluray_compat=0 / constrained_intra=0 / bframes=7 / b_pyramid=2 / b_adapt=2 / b_bias=0 / direct=3 / weightb=1 / open_gop=0 / weightp=2 / keyint=240 / keyint_min=23 / scenecut=40 / intra_refresh=0 / rc=2pass / mbtree=0 / bitrate=5420 / ratetol=1.0 / qcomp=0.60 / qpmin=0 / qpmax=69 / qpstep=4 / cplxblur=20.0 / qblur=0.5 / ip_ratio=1.40 / pb_ratio=1.30 / aq=1:1.00
Язык : English

Аудио #1
Идентификатор : 2
Формат : AC-3
Формат/Информация : Audio Coding 3
Расширение режима : CM (complete main)
Параметр Endianness формата : Big
Идентификатор кодека : A_AC3
Продолжительность : 1 ч. 17 м.
Вид битрейта : Постоянный
Битрейт : 640 Кбит/сек
Каналы : 6 каналов
Расположение каналов : Front: L C R, Side: L R, LFE
Частота : 48,0 КГц
Битовая глубина : 16 бит
Метод сжатия : С потерями
Размер потока : 356 Мбайт (10%)
Заголовок : Rus
Язык : Russian

Аудио #2
Идентификатор : 3
Формат : AC-3
Формат/Информация : Audio Coding 3
Расширение режима : CM (complete main)
Параметр Endianness формата : Big
Идентификатор кодека : A_AC3
Продолжительность : 1 ч. 17 м.
Вид битрейта : Постоянный
Битрейт : 640 Кбит/сек
Каналы : 6 каналов
Расположение каналов : Front: L C R, Side: L R, LFE
Частота : 48,0 КГц
Битовая глубина : 16 бит
Метод сжатия : С потерями
Размер потока : 356 Мбайт (10%)
Заголовок : Eng
Язык : English

Текст #1
Идентификатор : 4
Формат : UTF-8
Идентификатор кодека : S_TEXT/UTF8
Идентификатор кодека/Информация : UTF-8 Plain Text
Заголовок : Rus
Язык : Russian

Текст #2
Идентификатор : 5
Формат : UTF-8
Идентификатор кодека : S_TEXT/UTF8
Идентификатор кодека/Информация : UTF-8 Plain Text
Заголовок : Eng
Язык : English

Меню
00:00:00.000 : :Chapter 01
00:03:18.698 : :Chapter 02
00:10:35.968 : :Chapter 03
00:15:30.095 : :Chapter 04
00:19:00.472 : :Chapter 05
00:24:23.545 : :Chapter 06
00:28:12.273 : :Chapter 07
00:37:12.313 : :Chapter 08
00:41:30.237 : :Chapter 09
00:47:40.524 : :Chapter 10
00:51:29.169 : :Chapter 11
00:54:56.584 : :Chapter 12
01:01:01.115 : :Chapter 13
01:04:45.047 : :Chapter 14
01:10:30.392 : :Chapter 15
01:12:44.985 : :Chapter 16
01:17:41.156 : :Chapter 17

Статистика торрента
Раздают: 105 Качают: 29 Размер: 3.64GB Скачали: 12
Имя файла: 36676_-rutor.org-Bear.torrent
Похожие торренты
Отзывы пользователей
Добавить отзыв