283MB / Спортивная рыбалка. Река Миасс. Чемпионат Челябинской области (Павел Сумской) [2014, документальный, рыбалка, SATRip]

рейтинг из 5
  • Добавил: zlidny
  • Дата: 01/10/14, 10:58:42
  • Просмотры: 298
  • Отзывы: 0
?????
Название игры:
Год выхода игры:
Жанр игры: Документальные

Перевод: Не требуется, cубтитры: отсутствуют
Формат: SATRip, AVI, XviD, MP3
Страна: Россия
Режиссер: Павел Сумской
Жанр: документальный, рыбалка
Продолжительность: 00:22:08
Год выпуска: 2014

Описание: «Наша программа это бой. Это соревнования между двумя рыболовными спортсменами. Мы постоянно будем приглашать выдающихся спортсменов разных видов рыболовного спорта. Для того, чтобы соревноваться в честной борьбе на водоеме».

Сегодня здесь состоится грандиозное рыболовное событие чемпионат Челябинской области по ловле на поплавочную удочку. В этом чемпионате принимает участие наш бессменный ведущий рыболов спортсмен профессионал рыбной ловли, спортивный судья второй категории Евгений Замятин.

Видео: 704x400 (1.76:1), 25 fps, XviD build 50 ~1652 kbps avg, 0.235 bit/pixel
Аудио: 48 kHz, MPEG Layer 3, 2 ch, ~128.00 kbps avg
 

MediaInfo
Формат : AVI
Формат/Информация : Audio Video Interleave
Размер файла : 283 Мбайт
Продолжительность : 22 м.
Общий поток : 1790 Кбит/сек
Библиотека кодирования : VirtualDub build 35390/release

Видео
Идентификатор : 0
Формат : MPEG-4 Visual
Профиль формата : Advanced Simple@L5
Параметр BVOP формата : Нет
Параметр QPel формата : Нет
Параметр GMC формата : Без точки перехода
Параметр матрицы формата : Default (MPEG)
Идентификатор кодека : XVID
Идентификатор кодека/Подсказка : XviD
Продолжительность : 22 м.
Битрейт : 1652 Кбит/сек
Ширина : 704 пикселя
Высота : 400 пикселей
Соотношение сторон : 16:9
Частота кадров : 25,000 кадров/сек
Цветовое пространство : YUV
Субдискретизация насыщенности : 4:2:0
Битовая глубина : 8 бит
Тип развёртки : Прогрессивная
Метод сжатия : С потерями
Бит/(Пиксели*Кадры) : 0.235
Размер потока : 262 Мбайт (92%)
Библиотека кодирования : XviD 64

Аудио
Идентификатор : 1
Формат : MPEG Audio
Версия формата : Version 1
Профиль формата : Layer 3
Идентификатор кодека : 55
Идентификатор кодека/Подсказка : MP3
Продолжительность : 22 м.
Вид битрейта : Постоянный
Битрейт : 128 Кбит/сек
Каналы : 1 канал
Частота : 48,0 КГц
Метод сжатия : С потерями
Размер потока : 20,3 Мбайт (7%)
Выравнивание : Разделение по промежуткам
Продолжительность промежутка : 40 мс. (1,00 видеокадр)
Время предзагрузки промежутка : 500 мс.

скриншоты










Статистика торрента
Раздают: 5 Качают: 81 Размер: 283MB Скачали: 18
Имя файла: 38076_Sportivnaya_ryb.torrent
Похожие торренты
Отзывы пользователей
Добавить отзыв