1GB / Агафья (2 серии из 2) (Павел Байдиков) [2014, документальный, научно - познавательный, IPTVRip 720p]

рейтинг из 5
  • Добавил: zlidny
  • Дата: 25/09/14, 11:38:59
  • Просмотры: 628
  • Отзывы: 0
?????
Название игры:
Год выхода игры:
Жанр игры: Документальные

Перевод: Не требуется, cубтитры: русские
Формат: IPTVRip 720p, MP-4, H.264, AAC
Страна: Россия, RT
Режиссер: Павел Байдиков
Жанр: документальный, научно - познавательный
Продолжительность: 2 х ~ 00:25:00
Год выпуска: 2014
В ролях: Агафья Лыкова, Ерофей Седов

Описание: Агафья, последняя из знаменитой семьи староверов-отшельников Лыковых, живет в тайге в одиночестве, ведёт хозяйство и неустанно молится. Ей уже скоро 70 лет – силы уходят, нужен помощник, однако желающих поселиться в лесной глуши пока не нашлось. Обосновавшийся по соседству бывший геолог Ерофей Седов знаком с Агафьей много лет. Когда-то именно он обнаружил семейство Лыковых и рассказал о них миру, а теперь поможет нам по-новому взглянуть на всем знакомую историю.

Видео: 1280х720 (1.78:1), 25 fps, AVC(x264), High@L3.1 ~2637 kbps avg, 0.114 bit/pixel
Аудио: 44.1 kHz, AАC, 2 ch, ~192.00 kbps avg
Тех. данные всех серий идентичны
 

MediaInfo

Complete name : D:\Мои раздачи 09.2014\Агафья\agaffa.01.mp4
Format : MPEG-4
Format profile : Base Media / Version 2
Codec ID : mp42
File size : 526 MiB
Duration : 25mn 57s
Overall bit rate mode : Variable
Overall bit rate : 2 831 Kbps
Encoded date : UTC 2014-09-21 15:17:43
Tagged date : UTC 2014-09-21 15:17:43
gsst : 0
gstd : 1557663
gssd : B5E893FC6MH1411429437063725
gshh : r3---sn-vh3j-vhne.googlevideo.com
Video #1
ID : 1
Format : AVC
Format/Info : Advanced Video Codec
Format profile : High@L3.1
Format settings, CABAC : Yes
Format settings, ReFrames : 1 frame
Format settings, GOP : M=1, N=60
Codec ID : avc1
Codec ID/Info : Advanced Video Coding
Duration : 25mn 57s
Bit rate : 2 637 Kbps
Maximum bit rate : 7 088 Kbps
Width : 1 280 pixels
Height : 720 pixels
Display aspect ratio : 16:9
Frame rate mode : Constant
Frame rate : 25.000 fps
Color space : YUV
Chroma subsampling : 4:2:0
Bit depth : 8 bits
Scan type : Progressive
Bits/(Pixel*Frame) : 0.114
Stream size : 490 MiB (93%)
Tagged date : UTC 2014-09-21 15:18:40
Audio #2
ID : 2
Format : AAC
Format/Info : Advanced Audio Codec
Format profile : LC
Codec ID : 40
Duration : 25mn 57s
Bit rate mode : Variable
Bit rate : 192 Kbps
Maximum bit rate : 201 Kbps
Channel(s) : 2 channels
Channel positions : Front: L R
Sampling rate : 44.1 KHz
Compression mode : Lossy
Stream size : 35.7 MiB (7%)
Title : IsoMedia File Produced by Google, 5-11-2011
Encoded date : UTC 2014-09-21 15:18:18
Tagged date : UTC 2014-09-21 15:18:40

Статистика торрента
Раздают: 46 Качают: 179 Размер: 1GB Скачали: 50
Имя файла: 37882_Agafya-2_serii_.torrent
Похожие торренты
Отзывы пользователей
Добавить отзыв