6.16GB / Стигматы / Stigmata (Руперт Уэйнрайт / Rupert Wainwright) [1999, ужасы, триллер, детектив, HDTVRip-AVC,720p]

Категория: фильмы » Детективы
рейтинг из 5
  • Добавил: zlidny
  • Дата: 30/07/14, 22:01:09
  • Просмотры: 178
  • Отзывы: 0
?????
Название игры:
Год выхода игры:
Жанр игры: Триллеры, Ужасы, Детективы

Перевод: Профессиональный [многоголосый закадровый] [R5]
Субтитры: русские, английские
Формат: HDTVRip-AVC, MKV, H.264, AC3
Страна: США
Режиссер: Руперт Уэйнрайт / Rupert Wainwright
Жанр: ужасы, триллер, детектив
Продолжительность: 01:42:01
Год выпуска: 1999

В ролях:
Патриция Аркетт / Patricia Arquette, Гэбриэл Бирн / Gabriel Byrne, Джонатан Прайс / Jonathan Pryce, Ниа Лонг / Nia Long, Томас Копаче / Thomas Kopache, Раде Сербеджия / Rade Serbedzija, Энрико Колантони / Enrico Colantoni, Дик Латесса / Dick Latessa, Портия Де Росси / Portia de Rossi, Патрик Малдун / Patrick Muldoon

Описание:
Фрэнки Пейдж живет спокойно, свободно и беззаботно. И меньше всего ее беспокоят вопросы о Боге. Все это в одночасье меняется, когда ее поражают «стигматы» — кровоточащие раны распятого Христа. Вскоре на нее обращает внимание отец Кернан, уполномоченный следователь из Ватикана.
Одновременно и другой священнослужитель, коррумпированный кардинал Хаусмен, понимает, что Фрэнки избрана для передачи сокрушительного пророчества, которое может навредить официальной церкви. Он убежден, что необходимо любым способом заставить ее замолчать.
Поэтому Кернан, рискуя жизнью, пытается спасти Фрэнки и получить послание, не только разбивающее устои римско-католической церкви, но и навсегда изменяющее судьбу человечества.



Видео: 1280x720 (1.778:1) 23,976 кадра/сек, AVC(x264), High@L4.1 8000 Кбит/сек, 0.362 Бит/(Пиксели*Кадры)
Аудио 1: Русский: 48 kHz, AC3 Dolby Digital, 2/0 (L,R) ch, ~192 kbps [Профессиональный многоголосый, закадровый] [R5];
Аудио 2: Английский: 48 kHz, AC3 Dolby Digital, 3/2 (L,C,R,l,r) + LFE ch, ~448 kbps [Оригинал]
 

Из книги «3500 кинорецензий»

Сергей Кудрявцев 6.5/10
Мистический триллер

Данному американскому фильму можно предъявить немало претензий — как по части сюжетных натяжек, так и по чересчур акцентированным средствам выразительности (недаром режиссёр Руперт Уэйнрайт начинал как клипмейкер). Хотя, в принципе, надо признать, что это отвечает жанру мистического триллера, в котором как бы предполагаются различные преувеличения и стилистические излишества. Но отнестись к картине «Стигматы» с особым вниманием заставляет то, что она довольно настойчиво пытается внушить зрителям мысль об извращении церковью учения самого Христа, который, согласно так называемому «пятому Евангелию от Фомы», призывал всех искать и находить Царствие небесное только внутри себя, а не в постройках из дерева и камня (то есть в церквах).
Также знаменательно, что подобную истину должны постичь ватиканский священник Эндрю Кирнан, больше похожий на учёного, ищущего разгадки религиозных тайн и чудес, и вовсе неверующая молодая парикмахерша Фрэнки Пейдж из Пенсильвании, которая стала невольной обладательницей стигмат (ран, напоминающих о мучениях Иисуса на Голгофе) и своеобразным посредником с духом уже умершего переводчика запретного Евангелия. Непонятно лишь то, что всё это начинает походить на вселение в девушку Дьявола, тем более что Фрэнки выступает явной соблазнительницей по отношению к святому отцу, который уже готов забыть о вере и сане.

И это, безусловно, ослабляет несомненный антиклерикальный пафос ленты, которая может быть легко подвержена критике и преследованию (что и случилось в ряде католических стран) за богохульство и оскорбление чувств верующих. Опять же ясно, что всё экзорцистское и мистическое в фильме «Стигматы» просто необходимо для пущего эффекта и навязчивого привлечения зрительского внимания — даже ценой пожертвования логики и смысла. Но, пожалуй, можно быть уверенным, что неоднократно повторенный авторский посыл по поводу отступления церковного института власти от подлинных христианских идей личного богоискательства всё-таки будет услышан зрителями.

А вот понят ли — это уже проблематично. Не случайно, что упомянутый в данной картине святой Франциск Ассизский (как и некоторые иные борцы за возвращение к первоосновам учения Христа, позднее расчётливо канонизированные церковью) неизбежно остался духовным одиночкой, подобно Иисусу, чей индивидуальный пафос истинной веры в Бога был всё равно извращён даже самыми горячими его поклонниками.

Интересно, что появление ленты «Стигматы» в российском прокате не встретило гневную реакцию самой ортодоксальной христианской религии — православия. В нём хоть и не существует для священников католического обета безбрачия, но идея пресловутого храма, к коему ведут все дороги на свете, неприятие возможности исключительно личного, внецерковного общения с Господом, а тем более — пресечение попыток собственного понимания заветов христианства, заставляют людей верить, повинуясь некоему стадному чувству. Поэтому у нас сначала рьяно расшибают лбы в молитвах, затем истово сносят церкви и впадают в массовое безверие, чтобы на новом витке религиозности прилюдно интересоваться довольно интимным вопросом отношения к вере и призывать петь «Отче наш» за компанию в прямом телеэфире.
1999
MI

General
Unique ID : 188882920044893517557076202774536340702 (0x8E1986F4993391C5B56A8CEF55D744DE)
Complete name : E:\Фильмы\Стигматы.1999.HDTVRip 720p.MVO+ENG.[tfile.ru].mkv
Format : Matroska
File size : 6.16 GiB
Duration : 1h 42mn
Overall bit rate : 8 637 Kbps
Encoded date : UTC 2014-07-28 19:51:25
Writing application : mkvmerge v4.2.0 ('No Talking') сборка от Jul 28 2010 18:38:23
Writing library : libebml v1.0.0 + libmatroska v1.0.0

Video
ID : 1
Format : AVC
Format/Info : Advanced Video Codec
Format profile : High@L4.1
Format settings, CABAC : Yes
Format settings, ReFrames : 9 frames
Muxing mode : Header stripping
Codec ID : V_MPEG4/ISO/AVC
Duration : 1h 42mn
Bit rate : 8 000 Kbps
Width : 1 280 pixels
Height : 720 pixels
Display aspect ratio : 16:9
Frame rate : 23.976 fps
Color space : YUV
Chroma subsampling : 4:2:0
Bit depth : 8 bits
Scan type : Progressive
Bits/(Pixel*Frame) : 0.362
Stream size : 5.58 GiB (91%)
Title : Stigmata.1999.720p.HDTV.DD5.1.x264-DON by LoRdScAb
Writing library : x264 core 118 r2085 8a62835
Encoding settings : cabac=1 / ref=9 / deblock=1:-3:-3 / analyse=0x3:0x133 / me=umh / subme=10 / psy=1 / psy_rd=1.15:0.00 / mixed_ref=1 / me_range=32 / chroma_me=1 / trellis=2 / 8x8dct=1 / cqm=0 / deadzone=21,11 / fast_pskip=0 / chroma_qp_offset=-2 / threads=12 / sliced_threads=0 / nr=0 / decimate=0 / interlaced=0 / bluray_compat=0 / constrained_intra=0 / bframes=7 / b_pyramid=2 / b_adapt=2 / b_bias=0 / direct=3 / weightb=1 / open_gop=0 / weightp=2 / keyint=250 / keyint_min=23 / scenecut=40 / intra_refresh=0 / rc_lookahead=40 / rc=2pass / mbtree=0 / bitrate=8000 / ratetol=1.0 / qcomp=0.70 / qpmin=0 / qpmax=69 / qpstep=4 / cplxblur=20.0 / qblur=0.5 / vbv_maxrate=50000 / vbv_bufsize=62500 / nal_hrd=none / ip_ratio=1.40 / pb_ratio=1.30 / aq=2:0.90
Language : English

Audio #1
ID : 2
Format : AC-3
Format/Info : Audio Coding 3
Mode extension : CM (complete main)
Muxing mode : Header stripping
Codec ID : A_AC3
Duration : 1h 42mn
Bit rate mode : Constant
Bit rate : 192 Kbps
Channel(s) : 2 channels
Channel positions : Front: L R
Sampling rate : 48.0 KHz
Bit depth : 16 bits
Compression mode : Lossy
Stream size : 140 MiB (2%)
Title : MVO AC3 2.0 192 kbps
Language : Russian

Audio #2
ID : 3
Format : AC-3
Format/Info : Audio Coding 3
Mode extension : CM (complete main)
Muxing mode : Header stripping
Codec ID : A_AC3
Duration : 1h 42mn
Bit rate mode : Constant
Bit rate : 448 Kbps
Channel(s) : 6 channels
Channel positions : Front: L C R, Side: L R, LFE
Sampling rate : 48.0 KHz
Bit depth : 16 bits
Compression mode : Lossy
Stream size : 327 MiB (5%)
Title : Original AC3 5.1 448 kbps
Language : English

Text #1
ID : 4
Format : UTF-8
Codec ID : S_TEXT/UTF8
Codec ID/Info : UTF-8 Plain Text
Language : Russian

Text #2
ID : 5
Format : UTF-8
Codec ID : S_TEXT/UTF8
Codec ID/Info : UTF-8 Plain Text
Language : English

скриншоты












Статистика торрента
Раздают: 60 Качают: 36 Размер: 6.16GB Скачали: 21
Имя файла: 36434_Stigmaty.1999.H.torrent
Похожие торренты
Отзывы пользователей
Добавить отзыв