4.01GB / Схватка (01-04 серии из 04) (Юрий Харнас) [2014, детектив, WEB-DL 720p]

Категория: фильмы » Детективы
рейтинг из 5
  • Добавил: zlidny
  • Дата: 07/10/14, 12:10:29
  • Просмотры: 492
  • Отзывы: 0
?????
Название игры:
Год выхода игры:
Жанр игры: Детективы

Формат: WEB-DL 720p, MKV, MPEG-4 AVC, AC3
Режиссер: Юрий Харнас
Жанр: детектив
Продолжительность: 4 x ~ 00:50:00
Год выпуска: 2014

В ролях: Юрий Чурсин, Кристина Казинская, Владимир Епифанцев, Виктория Райкова, Александр Чередник, Анатолий Котенёв, Виктор Потапешкин, Ёлка, Донатас Грудович, Ксения Яковлева, Алексей Франдетти, Андрей Свиридов, Евгений Кулаков, Владимир Юматов, Константин Спасский, Владимир Денисов, Евгения Пресникова, Ирина Домнинская, Руслан Братов, Александр Молочников, Павел Ремнёв

Описание: Евгений ничего не помнит о своей прошлой жизни. Нехитрое имущество, найденное в карманах, привело его в квартиру, но и та не подкинула воспоминаний. Единственное, что он понял, — он не простой человек. У простых людей дома не хранятся огромные суммы денег. У простых людей нет паспортов на разные фамилии. В это же время ФСБ приступило к расследованию дела о семи пропавших молодых людях. Все пропавшие были сиротами и погодками, что особенно заинтересовало следствие. Евгений сто процентно подходит под эти параметры и за ним начинается слежка…


 

MI
General
Unique ID : 233325531697306625342607759779338199807 (0xAF88DCE255A6F829A1B876659A7122FF)
Complete name : C:\Фильмы\Фильмы\Shvatka.2012.WEB-DL.720p.ExKinoRay\Shvatka.(01.seriya).2012.WEB-DL.720p.ExKinoRay.mkv
Format : Matroska
Format version : Version 2
File size : 1 017 MiB
Duration : 50mn 16s
Overall bit rate : 2 828 Kbps
Encoded date : UTC 2014-10-07 00:53:29
Writing application : mkvmerge v5.8.0 ('No Sleep / Pillow') built on Sep 2 2012 15:37:04
Writing library : libebml v1.2.3 + libmatroska v1.3.0

Video
ID : 1
Format : AVC
Format/Info : Advanced Video Codec
Format profile : High@L4.0
Format settings, CABAC : Yes
Format settings, ReFrames : 3 frames
Codec ID : V_MPEG4/ISO/AVC
Duration : 50mn 16s
Bit rate : 2 569 Kbps
Width : 1 280 pixels
Height : 720 pixels
Display aspect ratio : 16:9
Frame rate mode : Variable
Frame rate : 25.000 fps
Color space : YUV
Chroma subsampling : 4:2:0
Bit depth : 8 bits
Scan type : Progressive
Bits/(Pixel*Frame) : 0.112
Stream size : 905 MiB (89%)
Writing library : x264 core 142
Encoding settings : cabac=1 / ref=4 / deblock=1:0:0 / analyse=0x3:0x133 / me=hex / subme=7 / psy=1 / psy_rd=1.00:0.00 / mixed_ref=1 / me_range=16 / chroma_me=1 / trellis=2 / 8x8dct=1 / cqm=0 / deadzone=21,11 / fast_pskip=1 / chroma_qp_offset=-2 / threads=4 / lookahead_threads=1 / sliced_threads=0 / nr=0 / decimate=1 / interlaced=0 / bluray_compat=0 / constrained_intra=0 / bframes=6 / b_pyramid=1 / b_adapt=2 / b_bias=0 / direct=3 / weightb=1 / open_gop=0 / weightp=2 / keyint=100 / keyint_min=51 / scenecut=0 / intra_refresh=0 / rc_lookahead=50 / rc=2pass / mbtree=1 / bitrate=2569 / ratetol=1.0 / qcomp=0.60 / qpmin=0 / qpmax=69 / qpstep=4 / cplxblur=20.0 / qblur=0.5 / vbv_maxrate=3340 / vbv_bufsize=3854 / nal_hrd=none / filler=0 / ip_ratio=1.40 / aq=1:1.00
Language : Russian

Audio
ID : 2
Format : AC-3
Format/Info : Audio Coding 3
Mode extension : CM (complete main)
Codec ID : A_AC3
Duration : 50mn 16s
Bit rate mode : Constant
Bit rate : 256 Kbps
Channel(s) : 2 channels
Channel positions : Front: L R
Sampling rate : 48.0 KHz
Bit depth : 16 bits
Compression mode : Lossy
Stream size : 92.1 MiB (9%)
Language : Russian
 

Видео: 1280x720 (16:9), 25 fps, MPEG-4 AVC High@L4.1 ~2569 kbps avg, 0.0.112 bit/pixel
Аудио: 48.0 KHz, AC3, 2 ch, Front: L R ~256.00 kbps avg


Статистика торрента
Раздают: 303 Качают: 149 Размер: 4.01GB Скачали: 20
Имя файла: 38251_Shvatka-01-04_s.torrent
Похожие торренты
Отзывы пользователей
Добавить отзыв