2.7GB / Обмен (1-4 серии из 4) (Виктор Татарский) [2014, детектив, криминал, WEB-DLRip-AVC]

Категория: фильмы » Детективы
рейтинг из 5
  • Добавил: zlidny
  • Дата: 12/10/14, 14:25:22
  • Просмотры: 261
  • Отзывы: 0
?????
Название игры:
Год выхода игры:
Жанр игры: Криминал, Детективы

Формат: WEB-DLRip (AVC), MKV, H.264, AC3
Режиссер: Виктор Татарский
Жанр: детектив, криминал
Продолжительность: 4 x ~ 00:43:00
Год выпуска: 2014

В ролях: Алексей Комашко, Светлана Щедрина, Игорь Павлов, Максим Дахненко, Андрей Гульнев, Вячеслав Аркунов, Роман Агеев, Валерия Шкирандо, Евгений Добряков, Сергей Смирнов

Описание:
Майор Поборцев расследует дело о серии дерзких налетов на банки. В процессе расследования ему удается захватить одного из шести налетчиков. Для этого следователю приходится дерзко нарушить инструкцию, но попытаться спасти жизнь девушки-заложницы. При задержании бандит обещает Поборцеву, что еще заставит его пожалеть. Только кто обращает внимание на угрозы задержанных преступников? Майор получает благодарность от руководства, премию на отпуск и строгий выговор за проявленную самодеятельность. Пока его жена Наталья выбирает путевку на море и собирает чемоданы, сам Поборцев, несмотря на официальный отпуск, помогает коллегам в расследовании. Он с самого начала догадывается, что бандиты специально пустили полицию по ложному следу. Когда второй налетчик оказывается почти в руках у следователей, кто-то успевает его предупредить. О задержании, помимо Поборцева, знали пять человек. Все они теперь под подозрением, а подполковник Тепляков подозревает и самого майора.
И в этот момент первый налетчик, задержанный Поборцевым, умудряется выполнить свое обещание, находясь за решеткой. Теперь следователь вынужден пойти на обмен - ему нужно довести дело до конца, но играть придется по правилам бандитов…



Видео: 1024х576 (1.77:1), 25,000 fps, AVC (х264), Main@L4.1, ~2000 Kbps avg, 0.136 bit/pixel
Аудио: 48.0 kHz, AC3 Dolby Digital, 2 channels (Front: L R), ~192 kbps avg
(технические данные Видео и Аудио всех файлов идентичны)
 

MediaInfo
Общее
Уникальный идентификатор : 196498538928006338902391858101280347862 (0x93D43DF4B1933CC9A9E9DF76F0C496D6)
Полное имя : D:\Video\...\obmen_e01_[tfile.me].mkv
Формат : Matroska
Версия формата : Version 2
Размер файла : 689 Мбайт
Продолжительность : 43 м.
Режим общего битрейта : Постоянный
Общий поток : 2192 Кбит/сек
Название фильма : Obmen.(01.seriya.iz.04).2014.WEB-DLRip.(AVC).MediaClub
Дата кодирования : UTC 2014-10-10 19:54:17
Программа кодирования : mkvmerge v5.8.0 ('No Sleep / Pillow') built on Sep 2 2012 15:37:04
Библиотека кодирования : libebml v1.2.3 + libmatroska v1.3.0

Видео
Идентификатор : 1
Формат : AVC
Формат/Информация : Advanced Video Codec
Профиль формата : Main@L4.1
Параметр CABAC формата : Да
Параметр ReFrames формата : 2 кадра
Идентификатор кодека : V_MPEG4/ISO/AVC
Продолжительность : 43 м.
Вид битрейта : Постоянный
Битрейт : 2000 Кбит/сек
Ширина : 1024 пикселя
Высота : 576 пикселей
Соотношение сторон : 16:9
Режим частоты кадров : Постоянный
Частота кадров : 25,000 кадров/сек
Цветовое пространство : YUV
Субдискретизация насыщенности : 4:2:0
Битовая глубина : 8 бит
Тип развёртки : Прогрессивная
Бит/(Пиксели*Кадры) : 0.136
Размер потока : 615 Мбайт (89%)
Default : Да
Forced : Да

Аудио
Идентификатор : 2
Формат : AC-3
Формат/Информация : Audio Coding 3
Расширение режима : CM (complete main)
Параметр Endianness формата : Big
Идентификатор кодека : A_AC3
Продолжительность : 43 м.
Вид битрейта : Постоянный
Битрейт : 192 Кбит/сек
Каналы : 2 канала
Расположение каналов : Front: L R
Частота : 48,0 КГц
Битовая глубина : 16 бит
Метод сжатия : С потерями
Размер потока : 60,4 Мбайт (9%)
Язык : Russian
Default : Да
Forced : Да

скриншоты













Статистика торрента
Раздают: 193 Качают: 40 Размер: 2.7GB Скачали: 14
Имя файла: 38421_obmen-4_iz_4-tf.torrent
Похожие торренты
Отзывы пользователей
Добавить отзыв