2.71GB / Раскаленный периметр (1-4 серии из 4) (Игорь Драка) [2014, детектив, криминал, WEB-DLRip-AVC]

Категория: фильмы » Детективы
рейтинг из 5
  • Добавил: zlidny
  • Дата: 03/11/14, 20:50:45
  • Просмотры: 593
  • Отзывы: 0
?????
Название игры:
Год выхода игры:
Жанр игры: Криминал, Детективы

Формат: WEB-DLRip-AVC, MKV, H.264, AC3
Режиссер: Игорь Драка
Жанр: детектив, криминал
Продолжительность: 4 x ~ 00:45:00
Год выпуска: 2014
В ролях: Сергей Горобченко, Никита Волков, Оксана Скакун, Юрий Николаенко, Анатолий Бобер, Анастасия Спектор, Денис Старков, Алексей Суренский, Владимир Чернышов, Константин Шелестун

Описание: Андрей и Игорь, только что демобилизовавшиеся десантники, едут отдыхать в небольшой приморский городок, где живет родная тетя Игоря. От нее друзья узнают, что на пляжах города стали похищать девушек. Полиция ведет поиски, но тщетно. А вскоре полицейские задерживают Андрея и Игоря, так как пропали девушки, с которыми парни познакомились накануне.

Дело ведет майор Никольский. Поняв, что Андрей и Игорь не имеют отношения к похищениям, он рассказывает, что, по оперативной информации, к преступлениям причастны двое парней. У сыщиков весьма скудные сведения: известно лишь, что парни высокие и мускулистые.

На следующий день Игорь видит, как двое крепких парней знакомятся на пляже с девушками. Андрей не придает этому значения и идет купаться. А когда выходит из воды, обнаруживает, что Игорь лежит на песке без сознания. В тяжёлом состоянии Игоря отвозят в местную больницу, он в коме. Врачам не удаётся установить точный диагноз. Тем временем Андрей разыскивает Никольского и рассказывает ему о двух парнях, которых заметил Игорь. Никольский отправляет в больницу экспертов, которые выясняют, что Игорю сделали укол сильнодействующего препарата. Андрей просит Никольского разрешить ему участвовать в расследовании…

Доп. информация:


Видео: 1024х576 (16:9), 25,000 fps, AVC (x264) High@L4.1, ~ 2000 kbps avg, 0.136 bit/pixel
Аудио: 48.0 kHz, AC-3 , (Front: L R) , 2 ch ~192Kbps avg
 

MediaInfo
Общее
Уникальный идентификатор : 197178566406171662982013278459741888278 (0x945735E62A68EBBE91AA5B021A6C5F16)
Полное имя : D:\Downloads\Raskalennyy.perimetr.2014.WEB-DLRip.(AVC).MediaClub\Raskalennyy.perimetr.(01.seriya.iz.04).2014.WEB-DLRip.(AVC).MediaClub.mkv
Формат : Matroska
Версия формата : Version 2
Размер файла : 693 Мбайт
Продолжительность : 44 м.
Режим общего битрейта : Постоянный
Общий поток : 2182 Кбит/сек
Название фильма : Raskalennyy.perimetr.(01.seriya.iz.04).2014.WEB-DLRip.(AVC).MediaClub
Дата кодирования : UTC 2014-10-31 20:58:50
Программа кодирования : mkvmerge v5.8.0 ('No Sleep / Pillow') built on Sep 2 2012 15:37:04
Библиотека кодирования : libebml v1.2.3 + libmatroska v1.3.0

Видео
Идентификатор : 1
Формат : AVC
Формат/Информация : Advanced Video Codec
Профиль формата : Main@L4.1
Параметр CABAC формата : Да
Параметр ReFrames формата : 2 кадра
Идентификатор кодека : V_MPEG4/ISO/AVC
Продолжительность : 44 м.
Вид битрейта : Постоянный
Битрейт : 2000 Кбит/сек
Ширина : 1024 пикселя
Высота : 576 пикселей
Соотношение сторон : 16:9
Режим частоты кадров : Постоянный
Частота кадров : 25,000 кадров/сек
Цветовое пространство : YUV
Субдискретизация насыщенности : 4:2:0
Битовая глубина : 8 бит
Тип развёртки : Прогрессивная
Бит/(Пиксели*Кадры) : 0.136
Размер потока : 618 Мбайт (89%)
Default : Да
Forced : Да

Аудио
Идентификатор : 2
Формат : AC-3
Формат/Информация : Audio Coding 3
Расширение режима : CM (complete main)
Параметр Endianness формата : Big
Идентификатор кодека : A_AC3
Продолжительность : 44 м.
Вид битрейта : Постоянный
Битрейт : 192 Кбит/сек
Каналы : 2 канала
Расположение каналов : Front: L R
Частота : 48,0 КГц
Битовая глубина : 16 бит
Метод сжатия : С потерями
Размер потока : 60,9 Мбайт (9%)
Язык : Russian
Default : Да
Forced : Да

Статистика торрента
Раздают: 261 Качают: 151 Размер: 2.71GB Скачали: 35
Имя файла: 39268_Raskalennyy_per.torrent
Похожие торренты
Отзывы пользователей
Добавить отзыв