2.41GB / В погоне за тенями (1-4 серии из 4) / Chasing Shadows (Кристофер Менол) [2014, детектив, триллер, WEB-DLRip-AVC]

Категория: фильмы » Детективы
рейтинг из 5
  • Добавил: zlidny
  • Дата: 06/10/14, 20:37:37
  • Просмотры: 243
  • Отзывы: 0
?????
Название игры:
Год выхода игры:
Жанр игры: Триллеры, Детективы

Перевод: Профессиональный (многоголосый закадровый) [BaibaKo]

Cубтитры: отсутствуют

Формат: WEB-DLRip-AVC, MP4, H.264, AAC

Страна: Великобритания

Режиссер: Кристофер Менол

Жанр: детектив, триллер

Продолжительность:
1 серия: 00:43:25
2 серия: 00:43:55
3 серия: 00:46:12
4 серия: 00:46:13

Год выпуска: 2014

В ролях: Рис Шерсмит, Дон Уоррингтон, Алекс Кингстон, Ноэль Кларк, Элфи Филд, Аджоа Андох, Мириам Ачарки, Линда Барон, Джон Альбазини, Даг Аллен

Описание: Чтобы найти серийных убийц, нужно знать, как они живут, работают, изучать их поведение. Лучше всего это может получиться у необщительного странноватого полицейского Шона Стоуна, особенности мышления которого позволяют раскрыть самые сложные преступления.

_________________

Видео: 720x400 (16:9), 25.000 fps, AVC MPEG-4 (x264), Baseline@L3.0 ~ 1536 kbps, 0.2013 bit/pixel

Аудио #1: Русский: 48 kHz, AAC-LC, 2 ch, ~192 kbps [Профессиональный (многоголосый закадровый)]
Аудио #2: Английский: 48 kHz, AAC-LC, 2 ch, ~192 kbps [Оригинал]
 

MediaInfo
General
Complete name : E:\Chasing Shadows_Klayd X\Part.1.Chasing Shadows_Klayd X.mp4
Format : MPEG-4
Format profile : Base Media
Codec ID : isom
File size : 596 MiB
Duration : 43mn 25s
Overall bit rate : 1 919 Kbps
Encoded date : UTC 2014-09-06 16:17:09
Tagged date : UTC 2014-09-06 16:17:09

Video
ID : 1
Format : AVC
Format/Info : Advanced Video Codec
Format profile : Baseline@L3.0
Format settings, CABAC : No
Format settings, ReFrames : 3 frames
Codec ID : avc1
Codec ID/Info : Advanced Video Coding
Duration : 43mn 25s
Bit rate mode : Variable
Bit rate : 1 536 Kbps
Maximum bit rate : 7 984 Kbps
Width : 720 pixels
Height : 400 pixels
Display aspect ratio : 16:9
Frame rate mode : Constant
Frame rate : 25.000 fps
Color space : YUV
Chroma subsampling : 4:2:0
Bit depth : 8 bits
Scan type : Progressive
Bits/(Pixel*Frame) : 0.213
Stream size : 477 MiB (80%)
Writing library : x264 core 130 r2273 b3065e6
Encoding settings : cabac=0 / ref=3 / deblock=1:0:0 / analyse=0x1:0x111 / me=hex / subme=7 / psy=1 / psy_rd=1.00:0.00 / mixed_ref=1 / me_range=16 / chroma_me=1 / trellis=1 / 8x8dct=0 / cqm=0 / deadzone=21,11 / fast_pskip=1 / chroma_qp_offset=-2 / threads=12 / lookahead_threads=2 / sliced_threads=0 / nr=0 / decimate=1 / interlaced=0 / bluray_compat=0 / constrained_intra=0 / bframes=0 / weightp=0 / keyint=250 / keyint_min=25 / scenecut=40 / intra_refresh=0 / rc_lookahead=40 / rc=2pass / mbtree=1 / bitrate=1536 / ratetol=1.0 / qcomp=0.60 / qpmin=0 / qpmax=69 / qpstep=4 / cplxblur=20.0 / qblur=0.5 / ip_ratio=1.40 / aq=1:1.00
Encoded date : UTC 2014-09-05 08:38:58
Tagged date : UTC 2014-09-06 16:17:21
Color primaries : BT.709-5, BT.1361, IEC 61966-2-4, SMPTE RP177
Transfer characteristics : BT.709-5, BT.1361
Matrix coefficients : BT.709-5, BT.1361, IEC 61966-2-4 709, SMPTE RP177

Audio #1
ID : 2
Format : AAC
Format/Info : Advanced Audio Codec
Format profile : LC
Codec ID : 67
Duration : 43mn 25s
Bit rate mode : Variable
Bit rate : 192 Kbps
Maximum bit rate : 196 Kbps
Channel(s) : 2 channels
Channel positions : Front: L R
Sampling rate : 48.0 KHz
Compression mode : Lossy
Stream size : 58.8 MiB (10%)
Language : Russian
Encoded date : UTC 2014-09-06 16:17:17
Tagged date : UTC 2014-09-06 16:17:21

Audio #2
ID : 3
Format : AAC
Format/Info : Advanced Audio Codec
Format profile : LC
Codec ID : 67
Duration : 43mn 25s
Bit rate mode : Variable
Bit rate : 192 Kbps
Maximum bit rate : 195 Kbps
Channel(s) : 2 channels
Channel positions : Front: L R
Sampling rate : 48.0 KHz
Compression mode : Lossy
Stream size : 58.8 MiB (10%)
Language : English
Encoded date : UTC 2014-09-06 16:17:19
Tagged date : UTC 2014-09-06 16:17:21

Статистика торрента
Раздают: 53 Качают: 97 Размер: 2.41GB Скачали: 13
Имя файла: 38218_Chasing_Shadows.torrent
Похожие торренты
Отзывы пользователей
Добавить отзыв