2.3GB / Обмен (1-4 серии из 4) (Виктор Татарский) [2014, детектив, криминал, SATRip]

Категория: фильмы » Детективы
рейтинг из 5
  • Добавил: zlidny
  • Дата: 10/10/14, 22:08:46
  • Просмотры: 865
  • Отзывы: 0
?????
Название игры:
Год выхода игры:
Жанр игры: Криминал, Детективы

Формат: SATRip, AVI, XviD, MP3
Режиссер: Виктор Татарский
Жанр: детектив, криминал
Продолжительность: 4 x ~ 00:43:00
Год выпуска: 2014
В ролях: Алексей Комашко, Светлана Щедрина, Игорь Павлов, Максим Дахненко, Андрей Гульнев, Вячеслав Аркунов, Роман Агеев, Валерия Шкирандо, Евгений Добряков, Сергей Смирнов
Описание:
Майор Поборцев расследует дело о серии дерзких налетов на банки. В процессе расследования ему удается захватить одного из шести налетчиков. Для этого следователю приходится также дерзко нарушить инструкцию, но попытаться спасти жизнь девушки-заложницы. При задержании бандит обещает Поборцеву, что еще заставит его пожалеть. Только кто обращает внимание на угрозы задержанных преступников? Майор получает благодарность от руководства, премию на отпуск и строгий выговор за проявленную самодеятельность. Пока его жена Наталья выбирает путевку на море и собирает чемоданы, сам Поборцев, несмотря на официальный отпуск, помогает коллегам в расследовании. Он с самого начала догадывается, что бандиты специально пустили полицию по ложному следу. Когда второй налетчик оказывается почти в руках у следователей, кто-то успевает его предупредить. О задержании, помимо Поборцева, знали пять человек. Все они теперь под подозрением, а подполковник Тепляков подозревает и самого майора. И в этот момент первый налетчик, задержанный Поборцевым, умудряется выполнить свое обещание, находясь за решеткой.Теперь следователь вынужден пойти на обмен - ему нужно довести дело до конца, но играть придется по правилам бандитов…



Видео: 720x448 (1.61:1), 25 fps, XviD build 47 ~1800 kbps avg, 0.223 bit/pixel
Аудио: 48 kHz, MPEG Layer 3, 2 ch, ~128.00 kbps avg
Тех. данные файлов идентичны.
 

MI
Общее
Полное имя : C:\Users\Irina\Downloads\Obmen.2014.SATRip\Obmen.03.2014.SATRip.avi
Формат : AVI
Формат/Информация : Audio Video Interleave
Размер файла : 575 Мбайт
Продолжительность : 41 м.
Общий поток : 1938 Кбит/сек
Библиотека кодирования : VirtualDub build 32817/release

Видео
Идентификатор : 0
Формат : MPEG-4 Visual
Профиль формата : Advanced Simple@L5
Параметр BVOP формата : 2
Параметр QPel формата : Нет
Параметр GMC формата : Без точки перехода
Параметр матрицы формата : Default (MPEG)
Идентификатор кодека : XVID
Идентификатор кодека/Подсказка : XviD
Продолжительность : 41 м.
Битрейт : 1800 Кбит/сек
Ширина : 720 пикселей
Высота : 448 пикселей
Соотношение сторон : 1,607
Частота кадров : 25,000 кадров/сек
Цветовое пространство : YUV
Субдискретизация насыщенности : 4:2:0
Битовая глубина : 8 бит
Тип развёртки : Прогрессивная
Метод сжатия : С потерями
Бит/(Пиксели*Кадры) : 0.223
Размер потока : 534 Мбайт (93%)
Библиотека кодирования : XviD 1.2.1 (UTC 2008-12-04)

Аудио
Идентификатор : 1
Формат : MPEG Audio
Версия формата : Version 1
Профиль формата : Layer 3
Режим : Joint stereo
Расширение режима : MS Stereo
Идентификатор кодека : 55
Идентификатор кодека/Подсказка : MP3
Продолжительность : 41 м.
Вид битрейта : Постоянный
Битрейт : 128 Кбит/сек
Каналы : 2 канала
Частота : 48,0 КГц
Метод сжатия : С потерями
Размер потока : 38,0 Мбайт (7%)
Выравнивание : Разделение по промежуткам
Продолжительность промежутка : 40 мс. (1,00 видеокадр)
Время предзагрузки промежутка : 500 мс.

скриншоты







Статистика торрента
Раздают: 35 Качают: 192 Размер: 2.3GB Скачали: 21
Имя файла: 38395_obmen-tfile.ru-.torrent
Похожие торренты
Отзывы пользователей
Добавить отзыв