2.35GB / Полнолуние (1-4 серии из 4) (Сергей Белошников) [2005, детектив, мистика, ужасы, DVDRip]

Категория: фильмы » Детективы
рейтинг из 5
  • Добавил: zlidny
  • Дата: 16/08/14, 09:28:21
  • Просмотры: 374
  • Отзывы: 0
?????
Название игры:
Год выхода игры:
Жанр игры: Mистика, Ужасы, Детективы

Формат: DVDRip, AVI, XviD, AC3
Режиссер: Сергей Белошников
Жанр: детектив, мистика, ужасы
Продолжительность: 4 x ~ 00:48:00
Год выпуска: 2005
В ролях: Игорь Бочкин, Мария Порошина, Дмитрий Ульянов, Владимир Епифанцев, Борис Чунаев, Владимир Скворцов, Максим Дрозд, Ольга Левитина, Николай Токарев, Алевтина Попова, Виктория Смирнова, Алексей Климов, Роман Радов, Михаил Белякович, Александр Козлов, Александр Карпиловский, Татьяна Пискарева, Галина Стаханова, Светлана Свибильская, Владимир Коппалов, Владимир Михайловский, Александр Малышев (III), Пётр Томашевский, Олег Скляров, Виктор Конисевич, Яков Ефимов
Описание:
В семидесятых годах прошлого века семью молодого учителя Лебедева, живущего на окраине Бурятского села, постигает трагедия. В селении зверствуют волки. Не щадят они и самого Алексея Лебедева, его жену Катю. Во время кровавой резни, которую устраивают хищники, мужчина и женщина гибнут. Их маленьким сыновьям Кириллу и Филиппу каким-то чудом удается избежать участи родителей. Но одного из мальчиков за руку кусает старый волк… Мальчики попадают в детский дом. Но до нашего времени доживает только Кирилл. Его брат Филипп умирает при загадочных обстоятельствах, но его труп никто не видел. Наше время. В подмосковном поселке от рук кровавого изувера гибнет скот местного фермера. Дело расследуют местные стражи правопорядка Станислава Ошуркова и Антон Михайлишин. Во время следствия в поселке один за другим гибнут местные жители...



Видео: 704x400 (1.76:1), 25 fps, XviD MPEG-4 ~1527 kbps avg, 0.217 bit/pixel
Аудио: 48 kHz, АС3, 2 ch, Front: L R ~224.00 kbps avg
Тех. данные файлов идентичны.
 

MI
Общее
Полное имя : C:\Users\Admin\Downloads\Polnolynie.(4.serii.iz.4).2005.XviD.DVDRip.kinozal.tv\Polnolynie.(1.seriya.iz.4).2005.XviD.DVDRip.kinozal.tv.avi
Формат : AVI
Формат/Информация : Audio Video Interleave
Размер файла : 604 Мбайт
Продолжительность : 48 м.
Общий поток : 1758 Кбит/сек
Программа кодирования : VirtualDubMod 1.5.4.1 (build 2178/release)
Библиотека кодирования : VirtualDubMod build 2178/release

Видео
Идентификатор : 0
Формат : MPEG-4 Visual
Профиль формата : Advanced Simple@L5
Параметр BVOP формата : 1
Параметр QPel формата : Нет
Параметр GMC формата : Без точки перехода
Параметр матрицы формата : Выборочная
Идентификатор кодека : XVID
Идентификатор кодека/Подсказка : XviD
Продолжительность : 48 м.
Битрейт : 1527 Кбит/сек
Ширина : 704 пикселя
Высота : 400 пикселей
Соотношение сторон : 16:9
Частота кадров : 25,000 кадров/сек
Цветовое пространство : YUV
Субдискретизация насыщенности : 4:2:0
Битовая глубина : 8 бит
Тип развёртки : Прогрессивная
Метод сжатия : С потерями
Бит/(Пиксели*Кадры) : 0.217
Размер потока : 525 Мбайт (87%)
Библиотека кодирования : XviD 1.3.0.dev55

Аудио
Идентификатор : 1
Формат : AC-3
Формат/Информация : Audio Coding 3
Расширение режима : CM (complete main)
Параметр Endianness формата : Big
Идентификатор кодека : 2000
Продолжительность : 48 м.
Вид битрейта : Постоянный
Битрейт : 224 Кбит/сек
Каналы : 2 канала
Расположение каналов : Front: L R
Частота : 48,0 КГц
Битовая глубина : 16 бит
Метод сжатия : С потерями
Размер потока : 77,0 Мбайт (13%)
Выравнивание : Разделение по промежуткам
Продолжительность промежутка : 96 мс. (2,40 видеокадра)
Время предзагрузки промежутка : 96 мс.
Язык : Russian

скриншоты







Статистика торрента
Раздают: 117 Качают: 76 Размер: 2.35GB Скачали: 20
Имя файла: 37036_polnolunie-tfil.torrent
Похожие торренты
Отзывы пользователей
Добавить отзыв