2.31GB / Медвежья хватка (1-4 серии из 4) (Артём Мазунов) [2014, детектив, SATRip]

Категория: фильмы » Детективы
рейтинг из 5
  • Добавил: zlidny
  • Дата: 17/10/14, 22:28:56
  • Просмотры: 390
  • Отзывы: 0
?????
Название игры:
Год выхода игры:
Жанр игры: Детективы

Формат: SATRip, AVI, DivX, MP3
Режиссер: Артём Мазунов
Жанр: детектив
Продолжительность: 4 x ~ 00:45:00
Год выпуска: 2014
В ролях: Вячеслав Дробинков, Дмитрий Ульянов, Ольга Сухарева, Наталья Батрак, Константин Балакирев, Андрей Чуманов, Андрей Финягин, Владимир Тишко, Ильдар Фатхуллин, Александр Ефремов (II), Павел Сметанкин, Артём Мазунов, Илья Ермолаев, Станислав Ковальчук, Максим Костромыкин, Сергей Ефремов (II), Зинаида Матросова, Алла Малкова, Денис Норка, Любовь Табачкова, Константин Прытков, Сергей Тезов, Михаил Слесарев, Игорь Фурманюк
Описание:
Из далекого алтайского городка в Москву приехал молодой мужчина Михаил. Он привез с собой деньги, вырученные от продажи дома и небольшой кузнечной мастерской. Вся собранная сумма — около 30 тысяч долларов — нужна на срочную хирургическую операцию старшей сестре Михаила — Анне. Прямо на перроне вокзала сумку с деньгами у Михаила крадут, а он сам оказывается в участке, так как при попытке догнать вора наш герой сбивает с ног полицейского. Чужой город, отсутствие денег, крушение надежд на выздоровление сестры - подобные обстоятельства могут сломать любого человека. Но не Михаила. Он настоящий сибиряк, охотник, и у него - медвежья хватка...



Видео: 720x400 (1.80:1), 25 fps, DivX5 MPEG-4 ~1500 kbps avg, 0.186 bit/pixel
Аудио: 48 kHz, MPEG Layer 3, 2 ch, ~128.00 kbps avg
 

MI
Общее
Полное имя : C:\Users\Admin\Downloads\Медвежья хватка\Medvezhja.hvatka.01.SATRip.avi
Формат : AVI
Формат/Информация : Audio Video Interleave
Размер файла : 529 Мбайт
Продолжительность : 45 м.
Общий поток : 1637 Кбит/сек
Библиотека кодирования : VirtualDub build 35491/release

Видео
Идентификатор : 0
Формат : MPEG-4 Visual
Параметр BVOP формата : 1
Параметр QPel формата : Нет
Параметр GMC формата : Без точки перехода
Параметр матрицы формата : Default (H.263)
Режим смешивания : Сжатый битовый поток
Идентификатор кодека : DX50
Идентификатор кодека/Подсказка : DivX 5
Продолжительность : 45 м.
Битрейт : 1500 Кбит/сек
Ширина : 720 пикселей
Высота : 448 пикселей
Соотношение сторон : 1,607
Частота кадров : 25,000 кадров/сек
Цветовое пространство : YUV
Субдискретизация насыщенности : 4:2:0
Битовая глубина : 8 бит
Тип развёртки : Прогрессивная
Метод сжатия : С потерями
Бит/(Пиксели*Кадры) : 0.186
Размер потока : 485 Мбайт (92%)
Библиотека кодирования : DivX 6.8.5 (UTC 2009-08-20)

Аудио
Идентификатор : 1
Формат : MPEG Audio
Версия формата : Version 1
Профиль формата : Layer 3
Режим : Joint stereo
Идентификатор кодека : 55
Идентификатор кодека/Подсказка : MP3
Продолжительность : 45 м.
Вид битрейта : Постоянный
Битрейт : 128 Кбит/сек
Каналы : 2 канала
Частота : 48,0 КГц
Метод сжатия : С потерями
Размер потока : 41,4 Мбайт (8%)
Выравнивание : Разделение по промежуткам
Продолжительность промежутка : 40 мс. (1,00 видеокадр)
Время предзагрузки промежутка : 500 мс.

скриншоты





Статистика торрента
Раздают: 246 Качают: 79 Размер: 2.31GB Скачали: 19
Имя файла: 38632_hvatka-tfile.ru.torrent
Похожие торренты
Отзывы пользователей
Добавить отзыв