2.26GB / Саквояж со светлым будущим (1-4 серии из 4) (Вячеслав Криштофович) [2007, детектив, экранизация, DVDRip]

Категория: фильмы » Детективы
рейтинг из 5
  • Добавил: zlidny
  • Дата: 01/10/14, 11:32:31
  • Просмотры: 201
  • Отзывы: 0
?????
Название игры:
Год выхода игры:
Жанр игры: Детективы

Формат: DVDRip, AVI, XviD, AC3
Режиссер: Вячеслав Криштофович
Жанр: детектив, экранизация
Продолжительность: 4 x ~ 00:45:00
Год выпуска: 2007
В ролях: Елена Оболенская, Ян Цапник, Мария Шукшина, Алексей Весёлкин, Сергей Жигунов, Сергей Кудряшов, Юрий Цурило, Марк Гаврилов, Евгений Пашин, Людмила Смородина, Олег Примогенов, Леся Самаева, Андрей Журба, Диана Рудыченко, Валентин Томусяк, Михаил Жонин
Описание:
По одноименному детективу Татьяны Устиновой. Писателю Дмитрию Родионову детективные истории удаются легко. Мог ли он подумать, что подобное случится с ним самим? Аркадий Возвиженский, которого его поклонники знают под литературным псевдонимом «Дмитрий Родионов», оказывается, замешан в историю, соответствующую всем канонам криминального жанра: с угрозами и убийством. В пекло событий попадает и преданная писателю секретарша Маша Вепренцева, сыну которой в случае неповиновения угрожает жестокая расправа. От Аркадия и Маши требуют отменить «гастрольную» поездку в Киев, затеянной издательством ради рекламной компании нового книги Родионова. Однако зловещий звонок никак не меняет планов писателя и его помощницы. О чем им вскоре приходится горько пожалеть..



Видео: 688х384 (16:9), 25 fps, XviD MPEG-4 ~1491 kbps avg, 0.226 bit/pixel
Аудио: 48 kHz, АС3, 2 ch, Front: L R ~192.00 kbps avg
Тех. данные файлов идентичны.
 

MI
Общее
Полное имя : C:\Users\Downloads\Sakvoyaj.so.svetlym.budushim.(1-4.serii.iz.4).2007.XviD.DVDRip\Sakvoyaj.so.svetlym.budushim.(4.serija.iz.4).2007.XviD.DVDRip.avi
Формат : AVI
Формат/Информация : Audio Video Interleave
Размер файла : 565 Мбайт
Продолжительность : 46 м.
Общий поток : 1693 Кбит/сек
Название фильма : Sakvoyaz_so_svetlym_budushim
Программа кодирования : FairUse Wizard - http://fairusewizard.com
Библиотека кодирования : VirtualDub build 30091/release
Правообладатель : Olu6ka

Видео
Идентификатор : 0
Формат : MPEG-4 Visual
Профиль формата : Advanced Simple@L5
Параметр BVOP формата : 2
Параметр QPel формата : Нет
Параметр GMC формата : Без точки перехода
Параметр матрицы формата : Выборочная
Идентификатор кодека : XVID
Идентификатор кодека/Подсказка : XviD
Продолжительность : 46 м.
Битрейт : 1491 Кбит/сек
Ширина : 688 пикселей
Высота : 384 пикселя
Соотношение сторон : 16:9
Частота кадров : 25,000 кадров/сек
Цветовое пространство : YUV
Субдискретизация насыщенности : 4:2:0
Битовая глубина : 8 бит
Тип развёртки : Прогрессивная
Метод сжатия : С потерями
Бит/(Пиксели*Кадры) : 0.226
Размер потока : 498 Мбайт (88%)
Библиотека кодирования : XviD 65

Аудио
Идентификатор : 1
Формат : AC-3
Формат/Информация : Audio Coding 3
Расширение режима : CM (complete main)
Параметр Endianness формата : Big
Идентификатор кодека : 2000
Продолжительность : 46 м.
Вид битрейта : Постоянный
Битрейт : 192 Кбит/сек
Каналы : 2 канала
Расположение каналов : Front: L R
Частота : 48,0 КГц
Битовая глубина : 16 бит
Метод сжатия : С потерями
Размер потока : 64,1 Мбайт (11%)
Выравнивание : Разделение по промежуткам
Продолжительность промежутка : 40 мс. (1,00 видеокадр)
Время предзагрузки промежутка : 500 мс.

скриншоты







Статистика торрента
Раздают: 339 Качают: 109 Размер: 2.26GB Скачали: 13
Имя файла: 38087_sakvojazh-tfile.torrent
Похожие торренты
Отзывы пользователей
Добавить отзыв