2.24GB / Короли российского сыска (3 серии из 3) (Владимир Алеников) [1996, детектив, TVRip]

Категория: фильмы » Детективы
рейтинг из 5
  • Добавил: zlidny
  • Дата: 10/08/14, 15:46:25
  • Просмотры: 555
  • Отзывы: 0
?????
Название игры:
Год выхода игры:
Жанр игры: Детективы

Формат: TVRip, AVI, XviD, AC3
Режиссер: Владимир Алеников
Жанр: детектив
Продолжительность: 3 x ~ 00:51:00
Год выпуска: 1996
В ролях: Армен Джигарханян, Николай Добрынин, Александр Феклистов, Геннадий Назаров, Любовь Полищук, Станислав Садальский, Игорь Ясулович, Альберт Филозов, Анна Терехова, Ирина Розанова, Алексей Жарков, Римма Маркова, Сергей Баталов, Марина Голуб, Маргарита Терехова, Вячеслав Гришечкин, Анатолий Белый, Лолита Милявская
Описание:
Молодой поручик Бутурлин, сын генерала Бутурлина, умирает после продолжительной болезни. Однако Кошко начинает сомневаться в естественной смерти поручика и приступает к расследованию обстоятельств его гибели. В результате блестяще проведенного следствия детективам удается доказать, что поручик был хитроумно убит, и выявить подлинных виновников его гибели.



Видео: 708x536 (4:3), 25 fps, XviD MPEG-4 ~1799 kbps avg, 0.190 bit/pixel
Аудио: 48 kHz, АС3, 2 ch, Front: L R ~256.00 kbps avg
Тех. данные файлов идентичны.
 

MI
Общее
Полное имя : C:\Users\Admin\Downloads\КОРОЛИ РОССИЙСКОГО СЫСКА\1 СЕРИЯ.avi
Формат : AVI
Формат/Информация : Audio Video Interleave
Размер файла : 763 Мбайт
Продолжительность : 51 м.
Общий поток : 2064 Кбит/сек
Программа кодирования : VirtualDubModRus 1.5.10.2 (build 2542/release)
Библиотека кодирования : VirtualDubMod build 2542/release

Видео
Идентификатор : 0
Формат : MPEG-4 Visual
Профиль формата : Advanced Simple@L5
Параметр BVOP формата : 1
Параметр QPel формата : Нет
Параметр GMC формата : Без точки перехода
Параметр матрицы формата : Default (H.263)
Режим смешивания : Сжатый битовый поток
Идентификатор кодека : XVID
Идентификатор кодека/Подсказка : XviD
Продолжительность : 51 м.
Битрейт : 1799 Кбит/сек
Ширина : 708 пикселей
Высота : 536 пикселей
Соотношение сторон : 4:3
Частота кадров : 25,000 кадров/сек
Цветовое пространство : YUV
Субдискретизация насыщенности : 4:2:0
Битовая глубина : 8 бит
Тип развёртки : Прогрессивная
Метод сжатия : С потерями
Бит/(Пиксели*Кадры) : 0.190
Размер потока : 665 Мбайт (87%)
Библиотека кодирования : XviD 57

Аудио
Идентификатор : 1
Формат : AC-3
Формат/Информация : Audio Coding 3
Расширение режима : CM (complete main)
Параметр Endianness формата : Big
Идентификатор кодека : 2000
Продолжительность : 51 м.
Вид битрейта : Постоянный
Битрейт : 256 Кбит/сек
Каналы : 2 канала
Расположение каналов : Front: L R
Частота : 48,0 КГц
Битовая глубина : 16 бит
Метод сжатия : С потерями
Размер потока : 94,7 Мбайт (12%)
Выравнивание : Разделение по промежуткам
Продолжительность промежутка : 40 мс. (1,00 видеокадр)
Время предзагрузки промежутка : 500 мс.

Статистика торрента
Раздают: 371 Качают: 191 Размер: 2.24GB Скачали: 55
Имя файла: 36823_koroli-tfile.ru.torrent
Похожие торренты
Отзывы пользователей
Добавить отзыв